  0
SECTION
  2
HEADER
  9
$ACADVER
  1
AC1006
  9
$DWGCODEPAGE
  3
ansi_932
  9
$INSBASE
 10
0.0
 20
0.0
 30
0.0
  9
$EXTMIN
 10
723.180825320117
 20
636.3114198539649
  9
$EXTMAX
 10
921.1808055003172
 20
782.6379848932811
  9
$LIMMIN
 10
0.0
 20
0.0
  9
$LIMMAX
 10
420.0
 20
297.0
  9
$ORTHOMODE
 70
     0
  9
$REGENMODE
 70
     1
  9
$FILLMODE
 70
     1
  9
$QTEXTMODE
 70
     0
  9
$MIRRTEXT
 70
     1
  9
$DRAGMODE
 70
     2
  9
$LTSCALE
 40
1.0
  9
$OSMODE
 70
    37
  9
$ATTMODE
 70
     1
  9
$TEXTSIZE
 40
2.5
  9
$TRACEWID
 40
1.0
  9
$TEXTSTYLE
  7
STANDARD
  9
$CLAYER
  8
圖層4
  9
$CELTYPE
  6
BYLAYER
  9
$CECOLOR
 62
   256
  9
$DIMSCALE
 40
1.0
  9
$DIMASZ
 40
1.2
  9
$DIMEXO
 40
0.6
  9
$DIMDLI
 40
0.8
  9
$DIMRND
 40
0.0
  9
$DIMDLE
 40
0.0
  9
$DIMEXE
 40
0.6
  9
$DIMTP
 40
0.0
  9
$DIMTM
 40
0.0
  9
$DIMTXT
 40
1.5
  9
$DIMCEN
 40
2.5
  9
$DIMTSZ
 40
0.0
  9
$DIMTOL
 70
     0
  9
$DIMLIM
 70
     0
  9
$DIMTIH
 70
     0
  9
$DIMTOH
 70
     0
  9
$DIMSE1
 70
     0
  9
$DIMSE2
 70
     0
  9
$DIMTAD
 70
     1
  9
$DIMZIN
 70
     8
  9
$DIMBLK
  1

  9
$DIMASO
 70
     1
  9
$DIMSHO
 70
     1
  9
$DIMPOST
  1

  9
$DIMAPOST
  1

  9
$DIMALT
 70
     0
  9
$DIMALTD
 70
     4
  9
$DIMALTF
 40
0.0394
  9
$DIMLFAC
 40
1.0
  9
$DIMTOFL
 70
     1
  9
$DIMTVP
 40
0.0
  9
$DIMTIX
 70
     0
  9
$DIMSOXD
 70
     0
  9
$DIMSAH
 70
     0
  9
$DIMBLK1
  1

  9
$DIMBLK2
  1

  9
$LUNITS
 70
     2
  9
$LUPREC
 70
     4
  9
$SKETCHINC
 40
1.0
  9
$FILLETRAD
 40
0.5
  9
$AUNITS
 70
     0
  9
$AUPREC
 70
     0
  9
$MENU
  1
acad
  9
$ELEVATION
 40
0.0
  9
$THICKNESS
 40
0.0
  9
$LIMCHECK
 70
     0
  9
$CHAMFERA
 40
2.0
  9
$CHAMFERB
 40
2.0
  9
$SKPOLY
 70
     0
  9
$TDCREATE
 40
2452341.685386805
  9
$TDUPDATE
 40
2460773.485690637
  9
$TDINDWG
 40
3.1666949074
  9
$TDUSRTIMER
 40
3.1666949074
  9
$USRTIMER
 70
     1
  9
$ANGBASE
 50
0.0
  9
$ANGDIR
 70
     0
  9
$PDMODE
 70
     0
  9
$PDSIZE
 40
0.0
  9
$PLINEWID
 40
0.0
  9
$COORDS
 70
     1
  9
$SPLFRAME
 70
     0
  9
$SPLINETYPE
 70
     6
  9
$SPLINESEGS
 70
     8
  9
$ATTDIA
 70
     0
  9
$ATTREQ
 70
     1
  9
$HANDLING
 70
     1
  9
$HANDSEED
  5
12793
  9
$SURFTAB1
 70
     6
  9
$SURFTAB2
 70
     6
  9
$SURFTYPE
 70
     6
  9
$SURFU
 70
     6
  9
$SURFV
 70
     6
  9
$UCSNAME
  2

  9
$UCSORG
 10
0.0
 20
0.0
 30
0.0
  9
$UCSXDIR
 10
1.0
 20
0.0
 30
0.0
  9
$UCSYDIR
 10
0.0
 20
1.0
 30
0.0
  9
$USERI1
 70
     0
  9
$USERI2
 70
     0
  9
$USERI3
 70
     0
  9
$USERI4
 70
     0
  9
$USERI5
 70
     0
  9
$USERR1
 40
0.0
  9
$USERR2
 40
0.0
  9
$USERR3
 40
0.0
  9
$USERR4
 40
0.0
  9
$USERR5
 40
0.0
  9
$WORLDVIEW
 70
     1
  0
ENDSEC
  0
SECTION
  2
TABLES
  0
TABLE
  2
VPORT
 70
     1
  0
VPORT
  2
*ACTIVE
 70
     0
 10
0.0
 20
0.0
 11
1.0
 21
1.0
 12
851.6230761467833
 22
691.3675044473953
 13
0.0
 23
0.0
 14
10.0
 24
10.0
 15
10.0
 25
10.0
 16
0.0
 26
0.0
 36
1.0
 17
0.0
 27
0.0
 37
0.0
 40
192.8499689525324
 41
1.898550724637681
 42
50.0
 43
0.0
 44
0.0
 50
0.0
 51
0.0
 71
     0
 72
   100
 73
     1
 74
     1
 75
     0
 76
     0
 77
     0
 78
     1
  0
ENDTAB
  0
TABLE
  2
LTYPE
 70
     3
  0
LTYPE
  2
CONTINUOUS
 70
     0
  3
Solid line
 72
    65
 73
     0
 40
0.0
  0
LTYPE
  2
CENTERX2
 70
     0
  3
Center (2x) ________  __  ________  __  _____
 72
    65
 73
     4
 40
101.6
 49
63.5
 49
-12.7
 49
12.7
 49
-12.7
  0
LTYPE
  2
HIDDEN
 70
     0
  3
Hidden __ __ __ __ __ __ __ __ __ __ __ __ __ _
 72
    65
 73
     2
 40
9.524999999999999
 49
6.35
 49
-3.175
  0
ENDTAB
  0
TABLE
  2
LAYER
 70
    10
  0
LAYER
  2
0
 70
     0
 62
     7
  6
CONTINUOUS
  0
LAYER
  2
DEFPOINTS
 70
     0
 62
     7
  6
CONTINUOUS
  0
LAYER
  2
__
 70
     0
 62
     7
  6
CONTINUOUS
  0
LAYER
  2
圖層4
 70
     0
 62
     6
  6
CONTINUOUS
  0
LAYER
  2
CENTER
 70
     0
 62
     1
  6
CENTERX2
  0
LAYER
  2
1
 70
     0
 62
     9
  6
CONTINUOUS
  0
LAYER
  2
2
 70
     0
 62
     7
  6
CONTINUOUS
  0
LAYER
  2
4
 70
     0
 62
     8
  6
CONTINUOUS
  0
LAYER
  2
-
 70
     0
 62
     7
  6
CONTINUOUS
  0
LAYER
  2
文字
 70
     0
 62
     6
  6
CONTINUOUS
  0
ENDTAB
  0
TABLE
  2
STYLE
 70
     4
  0
STYLE
  2
STANDARD
 70
     0
 40
0.0
 41
1.0
 50
0.0
 71
     0
 42
2.5
  3
txt
  4

  0
STYLE
  2
MIN
 70
     0
 40
0.0
 41
1.0
 50
0.0
 71
     0
 42
78.94484843234464
  3

  4

  0
STYLE
  2
JL
 70
     0
 40
1.0
 41
0.5
 50
0.0
 71
     0
 42
5.0
  3
MS Mincho.ttf
  4

  0
STYLE
  2
LKK
 70
     0
 40
50.0
 41
1.5
 50
0.0
 71
     0
 42
50.0
  3
MS PGothic.ttf
  4

  0
ENDTAB
  0
TABLE
  2
VIEW
 70
     0
  0
ENDTAB
  0
TABLE
  2
UCS
 70
     0
  0
ENDTAB
  0
ENDSEC
  0
SECTION
  2
BLOCKS
  0
BLOCK
  8
0
  2
*D0
 70
     1
 10
0.0
 20
0.0
 30
0.0
  0
LINE
  5
1264C
  8
0
  6
BYBLOCK
 62
     6
 10
892.9567846859863
 20
728.5289971787053
 30
0.0
 11
908.4809931399626
 21
728.5289971787053
 31
0.0
  0
LINE
  5
1264D
  8
0
  6
BYBLOCK
 62
     6
 10
892.9567846859871
 20
696.5289971787054
 30
0.0
 11
908.4809931399626
 21
696.5289971787054
 31
0.0
  0
LINE
  5
1264E
  8
0
  6
BYBLOCK
 62
     6
 10
907.8809931399626
 20
727.3289971787052
 30
0.0
 11
907.8809931399626
 21
697.7289971787054
 31
0.0
  0
SOLID
  5
1264F
  8
0
  6
BYBLOCK
 62
     6
 10
907.6809931399625
 20
727.3289971787052
 30
0.0
 11
908.0809931399626
 21
727.3289971787052
 31
0.0
 12
907.8809931399626
 22
728.5289971787053
 32
0.0
 13
907.8809931399626
 23
728.5289971787053
 33
0.0
  0
SOLID
  5
12650
  8
0
  6
BYBLOCK
 62
     6
 10
907.6809931399625
 20
697.7289971787054
 30
0.0
 11
908.0809931399626
 21
697.7289971787054
 31
0.0
 12
907.8809931399626
 22
696.5289971787054
 32
0.0
 13
907.8809931399626
 23
696.5289971787054
 33
0.0
  0
TEXT
  5
12651
  8
0
  6
CONTINUOUS
 62
     3
 10
906.8809931399626
 20
711.2789971787054
 30
0.0
 40
1.5
  1
32
 50
90.0
  0
POINT
  5
12652
  8
DEFPOINTS
  6
BYBLOCK
 62
     0
 10
892.3567846859863
 20
728.5289971787053
 30
0.0
  0
POINT
  5
12653
  8
DEFPOINTS
  6
BYBLOCK
 62
     0
 10
892.3567846859871
 20
696.5289971787054
 30
0.0
  0
POINT
  5
12654
  8
DEFPOINTS
  6
BYBLOCK
 62
     0
 10
907.8809931399626
 20
696.5289971787054
 30
0.0
  0
ENDBLK
  8
0
  0
BLOCK
  8
0
  2
A$C4F0A1E78
 70
     0
 10
0.0
 20
0.0
 30
0.0
  0
TEXT
  5
1173B
  8
-
  6
CONTINUOUS
 10
0.266238915908616
 20
0.3993222648946813
 30
0.0
 40
0.7
  1
ポイン卜・フィッ卜・ノズル
  0
ENDBLK
  8
0
 62
     3
  0
BLOCK
  8
0
  2
*D3
 70
     1
 10
0.0
 20
0.0
 30
0.0
  0
LINE
  5
12664
  8
0
  6
BYBLOCK
 62
     6
 10
752.4358502697124
 20
722.4439971787042
 30
0.0
 11
752.4358502697124
 21
737.7460648246675
 31
0.0
  0
LINE
  5
12665
  8
0
  6
BYBLOCK
 62
     6
 10
770.4358502697122
 20
722.4439971787041
 30
0.0
 11
770.4358502697122
 21
737.7460648246675
 31
0.0
  0
LINE
  5
12666
  8
0
  6
BYBLOCK
 62
     6
 10
753.6358502697125
 20
737.1460648246675
 30
0.0
 11
769.2358502697122
 21
737.1460648246675
 31
0.0
  0
SOLID
  5
12667
  8
0
  6
BYBLOCK
 62
     6
 10
753.6358502697125
 20
737.3460648246676
 30
0.0
 11
753.6358502697125
 21
736.9460648246675
 31
0.0
 12
752.4358502697124
 22
737.1460648246675
 32
0.0
 13
752.4358502697124
 23
737.1460648246675
 33
0.0
  0
SOLID
  5
12668
  8
0
  6
BYBLOCK
 62
     6
 10
769.2358502697122
 20
737.3460648246676
 30
0.0
 11
769.2358502697122
 21
736.9460648246675
 31
0.0
 12
770.4358502697122
 22
737.1460648246675
 32
0.0
 13
770.4358502697122
 23
737.1460648246675
 33
0.0
  0
TEXT
  5
12669
  8
0
  6
CONTINUOUS
 62
     3
 10
760.4358502697123
 20
738.1460648246675
 30
0.0
 40
1.5
  1
18
  0
POINT
  5
1266A
  8
DEFPOINTS
  6
BYBLOCK
 62
     0
 10
752.4358502697124
 20
721.8439971787042
 30
0.0
  0
POINT
  5
1266B
  8
DEFPOINTS
  6
BYBLOCK
 62
     0
 10
770.4358502697122
 20
721.8439971787041
 30
0.0
  0
POINT
  5
1266C
  8
DEFPOINTS
  6
BYBLOCK
 62
     0
 10
770.4358502697122
 20
737.1460648246675
 30
0.0
  0
ENDBLK
  8
0
  0
BLOCK
  8
0
  2
*D4
 70
     1
 10
0.0
 20
0.0
 30
0.0
  0
LINE
  5
1266F
  8
0
  6
BYBLOCK
 62
     6
 10
831.0060016160879
 20
708.5289971787038
 30
0.0
 11
837.5432001586427
 21
708.5289971787038
 31
0.0
  0
LINE
  5
12670
  8
0
  6
BYBLOCK
 62
     6
 10
831.0060016160882
 20
716.528997178704
 30
0.0
 11
837.5432001586427
 21
716.528997178704
 31
0.0
  0
LINE
  5
12671
  8
0
  6
BYBLOCK
 62
     6
 10
836.9432001586426
 20
709.7289971787038
 30
0.0
 11
836.9432001586426
 21
715.328997178704
 31
0.0
  0
LINE
  5
12672
  8
0
  6
BYBLOCK
 62
     6
 10
836.9432001586426
 20
716.528997178704
 30
0.0
 11
836.9432001586426
 21
723.5462228761378
 31
0.0
  0
SOLID
  5
12673
  8
0
  6
BYBLOCK
 62
     6
 10
836.7432001586426
 20
709.7289971787038
 30
0.0
 11
837.1432001586427
 21
709.7289971787038
 31
0.0
 12
836.9432001586426
 22
708.5289971787038
 32
0.0
 13
836.9432001586426
 23
708.5289971787038
 33
0.0
  0
SOLID
  5
12674
  8
0
  6
BYBLOCK
 62
     6
 10
836.7432001586426
 20
715.328997178704
 30
0.0
 11
837.1432001586427
 21
715.328997178704
 31
0.0
 12
836.9432001586426
 22
716.528997178704
 32
0.0
 13
836.9432001586426
 23
716.528997178704
 33
0.0
  0
TEXT
  5
12675
  8
0
  6
CONTINUOUS
 62
     3
 10
835.9432001586426
 20
720.0462228761378
 30
0.0
 40
1.5
  1
\U+22058
 50
90.0
  0
POINT
  5
12676
  8
DEFPOINTS
  6
BYBLOCK
 62
     0
 10
830.4060016160879
 20
708.5289971787038
 30
0.0
  0
POINT
  5
12677
  8
DEFPOINTS
  6
BYBLOCK
 62
     0
 10
830.4060016160881
 20
716.528997178704
 30
0.0
  0
POINT
  5
12678
  8
DEFPOINTS
  6
BYBLOCK
 62
     0
 10
836.9432001586426
 20
716.528997178704
 30
0.0
  0
ENDBLK
  8
0
  0
BLOCK
  8
0
  2
*D5
 70
     1
 10
0.0
 20
0.0
 30
0.0
  0
LINE
  5
1267B
  8
0
  6
BYBLOCK
 62
     6
 10
831.0060016160882
 20
717.5289971787054
 30
0.0
 11
841.1933400859142
 21
717.5289971787054
 31
0.0
  0
LINE
  5
1267C
  8
0
  6
BYBLOCK
 62
     6
 10
831.0060016160879
 20
707.5289971787047
 30
0.0
 11
841.1933400859142
 21
707.5289971787047
 31
0.0
  0
LINE
  5
1267D
  8
0
  6
BYBLOCK
 62
     6
 10
840.5933400859142
 20
708.7289971787047
 30
0.0
 11
840.5933400859142
 21
716.3289971787053
 31
0.0
  0
LINE
  5
1267E
  8
0
  6
BYBLOCK
 62
     6
 10
840.5933400859142
 20
717.5289971787054
 30
0.0
 11
840.5933400859142
 21
724.520663845372
 31
0.0
  0
SOLID
  5
1267F
  8
0
  6
BYBLOCK
 62
     6
 10
840.3933400859141
 20
708.7289971787047
 30
0.0
 11
840.7933400859142
 21
708.7289971787047
 31
0.0
 12
840.5933400859142
 22
707.5289971787047
 32
0.0
 13
840.5933400859142
 23
707.5289971787047
 33
0.0
  0
SOLID
  5
12680
  8
0
  6
BYBLOCK
 62
     6
 10
840.3933400859141
 20
716.3289971787053
 30
0.0
 11
840.7933400859142
 21
716.3289971787053
 31
0.0
 12
840.5933400859142
 22
717.5289971787054
 32
0.0
 13
840.5933400859142
 23
717.5289971787054
 33
0.0
  0
TEXT
  5
12681
  8
0
  6
CONTINUOUS
 62
     3
 10
839.5933400859143
 20
720.270663845372
 30
0.0
 40
1.5
  1
\U+220510
 50
90.0
  0
POINT
  5
12682
  8
DEFPOINTS
  6
BYBLOCK
 62
     0
 10
830.4060016160881
 20
717.5289971787054
 30
0.0
  0
POINT
  5
12683
  8
DEFPOINTS
  6
BYBLOCK
 62
     0
 10
830.4060016160879
 20
707.5289971787047
 30
0.0
  0
POINT
  5
12684
  8
DEFPOINTS
  6
BYBLOCK
 62
     0
 10
840.5933400859142
 20
707.5289971787047
 30
0.0
  0
ENDBLK
  8
0
  0
BLOCK
  8
0
  2
*D6
 70
     1
 10
0.0
 20
0.0
 30
0.0
  0
LINE
  5
12687
  8
0
  6
BYBLOCK
 62
     6
 10
770.4358502697127
 20
729.1289971787043
 30
0.0
 11
770.4358502697127
 21
737.6986987620627
 31
0.0
  0
LINE
  5
12688
  8
0
  6
BYBLOCK
 62
     6
 10
830.8070651851947
 20
718.1289971787085
 30
0.0
 11
830.8070651851947
 21
737.6986987620627
 31
0.0
  0
LINE
  5
12689
  8
0
  6
BYBLOCK
 62
     6
 10
771.6358502697127
 20
737.0986987620627
 30
0.0
 11
829.6070651851946
 21
737.0986987620627
 31
0.0
  0
SOLID
  5
1268A
  8
0
  6
BYBLOCK
 62
     6
 10
771.6358502697127
 20
737.2986987620627
 30
0.0
 11
771.6358502697127
 21
736.8986987620626
 31
0.0
 12
770.4358502697127
 22
737.0986987620627
 32
0.0
 13
770.4358502697127
 23
737.0986987620627
 33
0.0
  0
SOLID
  5
1268B
  8
0
  6
BYBLOCK
 62
     6
 10
829.6070651851946
 20
737.2986987620627
 30
0.0
 11
829.6070651851946
 21
736.8986987620626
 31
0.0
 12
830.8070651851947
 22
737.0986987620627
 32
0.0
 13
830.8070651851947
 23
737.0986987620627
 33
0.0
  0
TEXT
  5
1268C
  8
0
  6
CONTINUOUS
 62
     3
 10
799.4964577274536
 20
738.0986987620627
 30
0.0
 40
1.5
  1
60
  0
POINT
  5
1268D
  8
DEFPOINTS
  6
BYBLOCK
 62
     0
 10
770.4358502697127
 20
728.5289971787042
 30
0.0
  0
POINT
  5
1268E
  8
DEFPOINTS
  6
BYBLOCK
 62
     0
 10
830.8070651851947
 20
717.5289971787084
 30
0.0
  0
POINT
  5
1268F
  8
DEFPOINTS
  6
BYBLOCK
 62
     0
 10
830.8070651851947
 20
737.0986987620627
 30
0.0
  0
ENDBLK
  8
0
  0
BLOCK
  8
0
  2
*D7
 70
     1
 10
0.0
 20
0.0
 30
0.0
  0
LINE
  5
12692
  8
0
  6
BYBLOCK
 62
     6
 10
796.8070651851956
 20
706.9289971787051
 30
0.0
 11
796.8070651851956
 21
687.6317304981607
 31
0.0
  0
LINE
  5
12693
  8
0
  6
BYBLOCK
 62
     6
 10
830.8070651851956
 20
706.9289971787045
 30
0.0
 11
830.8070651851956
 21
687.6317304981607
 31
0.0
  0
LINE
  5
12694
  8
0
  6
BYBLOCK
 62
     6
 10
798.0070651851956
 20
688.2317304981607
 30
0.0
 11
829.6070651851956
 21
688.2317304981607
 31
0.0
  0
SOLID
  5
12695
  8
0
  6
BYBLOCK
 62
     6
 10
798.0070651851956
 20
688.4317304981607
 30
0.0
 11
798.0070651851956
 21
688.0317304981606
 31
0.0
 12
796.8070651851956
 22
688.2317304981607
 32
0.0
 13
796.8070651851956
 23
688.2317304981607
 33
0.0
  0
SOLID
  5
12696
  8
0
  6
BYBLOCK
 62
     6
 10
829.6070651851956
 20
688.4317304981607
 30
0.0
 11
829.6070651851956
 21
688.0317304981606
 31
0.0
 12
830.8070651851956
 22
688.2317304981607
 32
0.0
 13
830.8070651851956
 23
688.2317304981607
 33
0.0
  0
TEXT
  5
12697
  8
0
  6
CONTINUOUS
 62
     3
 10
812.5570651851956
 20
689.2317304981607
 30
0.0
 40
1.5
  1
34
  0
POINT
  5
12698
  8
DEFPOINTS
  6
BYBLOCK
 62
     0
 10
796.8070651851956
 20
707.5289971787051
 30
0.0
  0
POINT
  5
12699
  8
DEFPOINTS
  6
BYBLOCK
 62
     0
 10
830.8070651851956
 20
707.5289971787046
 30
0.0
  0
POINT
  5
1269A
  8
DEFPOINTS
  6
BYBLOCK
 62
     0
 10
830.8070651851956
 20
688.2317304981607
 30
0.0
  0
ENDBLK
  8
0
  0
BLOCK
  8
0
  2
*D8
 70
     1
 10
0.0
 20
0.0
 30
0.0
  0
LINE
  5
1201E
  8
0
  6
BYBLOCK
 62
     6
 10
782.895789600815
 20
463.5594589802789
 30
0.0
 11
793.3999958278932
 21
463.5594589802789
 31
0.0
  0
LINE
  5
1201F
  8
0
  6
BYBLOCK
 62
     6
 10
782.8957896008155
 20
487.559458980279
 30
0.0
 11
793.3999958278932
 21
487.559458980279
 31
0.0
  0
LINE
  5
12020
  8
0
  6
BYBLOCK
 62
     6
 10
792.8999958278932
 20
464.5594589802789
 30
0.0
 11
792.8999958278932
 21
486.559458980279
 31
0.0
  0
SOLID
  5
12021
  8
0
  6
BYBLOCK
 62
     6
 10
792.7333291612266
 20
464.5594589802789
 30
0.0
 11
793.0666624945599
 21
464.5594589802789
 31
0.0
 12
792.8999958278932
 22
463.5594589802789
 32
0.0
 13
792.8999958278932
 23
463.5594589802789
 33
0.0
  0
SOLID
  5
12022
  8
0
  6
BYBLOCK
 62
     6
 10
792.7333291612266
 20
486.559458980279
 30
0.0
 11
793.0666624945599
 21
486.559458980279
 31
0.0
 12
792.8999958278932
 22
487.559458980279
 32
0.0
 13
792.8999958278932
 23
487.559458980279
 33
0.0
  0
TEXT
  5
12023
  8
0
  6
CONTINUOUS
 62
     3
 10
791.8999958278932
 20
474.3094589802789
 30
0.0
 40
1.5
  1
24
 50
90.0
  0
POINT
  5
12024
  8
DEFPOINTS
  6
BYBLOCK
 62
     0
 10
781.895789600815
 20
463.5594589802789
 30
0.0
  0
POINT
  5
12025
  8
DEFPOINTS
  6
BYBLOCK
 62
     0
 10
781.8957896008155
 20
487.559458980279
 30
0.0
  0
POINT
  5
12026
  8
DEFPOINTS
  6
BYBLOCK
 62
     0
 10
792.8999958278932
 20
487.559458980279
 30
0.0
  0
ENDBLK
  8
0
  0
BLOCK
  8
0
  2
*D9
 70
     1
 10
0.0
 20
0.0
 30
0.0
  0
LINE
  5
1202A
  8
0
  6
BYBLOCK
 62
     6
 10
693.2297952986019
 20
488.591588726037
 30
0.0
 11
693.2297952986019
 21
498.5992583697591
 31
0.0
  0
LINE
  5
1202B
  8
0
  6
BYBLOCK
 62
     6
 10
680.2297952986027
 20
482.0915887260355
 30
0.0
 11
680.2297952986027
 21
498.5992583697591
 31
0.0
  0
LINE
  5
1202C
  8
0
  6
BYBLOCK
 62
     6
 10
692.2297952986019
 20
498.0992583697591
 30
0.0
 11
681.2297952986027
 21
498.0992583697591
 31
0.0
  0
SOLID
  5
1202D
  8
0
  6
BYBLOCK
 62
     6
 10
692.2297952986019
 20
498.2659250364258
 30
0.0
 11
692.2297952986019
 21
497.9325917030924
 31
0.0
 12
693.2297952986019
 22
498.0992583697591
 32
0.0
 13
693.2297952986019
 23
498.0992583697591
 33
0.0
  0
SOLID
  5
1202E
  8
0
  6
BYBLOCK
 62
     6
 10
681.2297952986027
 20
498.2659250364258
 30
0.0
 11
681.2297952986027
 21
497.9325917030924
 31
0.0
 12
680.2297952986027
 22
498.0992583697591
 32
0.0
 13
680.2297952986027
 23
498.0992583697591
 33
0.0
  0
TEXT
  5
1202F
  8
0
  6
CONTINUOUS
 62
     3
 10
685.7297952986023
 20
499.0992583697591
 30
0.0
 40
1.5
  1
13
  0
POINT
  5
12030
  8
DEFPOINTS
  6
BYBLOCK
 62
     0
 10
693.2297952986019
 20
487.591588726037
 30
0.0
  0
POINT
  5
12031
  8
DEFPOINTS
  6
BYBLOCK
 62
     0
 10
680.2297952986027
 20
481.0915887260355
 30
0.0
  0
POINT
  5
12032
  8
DEFPOINTS
  6
BYBLOCK
 62
     0
 10
680.2297952986027
 20
498.0992583697591
 30
0.0
  0
ENDBLK
  8
0
  0
BLOCK
  8
0
  2
*D10
 70
     1
 10
0.0
 20
0.0
 30
0.0
  0
LINE
  5
12036
  8
0
  6
BYBLOCK
 62
     6
 10
716.5829224689395
 20
475.5915887260353
 30
0.0
 11
741.6564117265006
 21
475.5915887260351
 31
0.0
  0
LINE
  5
12037
  8
0
  6
BYBLOCK
 62
     6
 10
712.9978347346735
 20
479.0330473441422
 30
0.0
 11
735.5847148281854
 21
494.8485510502574
 31
0.0
  0
ARC
  5
12038
  8
0
  6
BYBLOCK
 62
     6
 10
708.0829224689385
 20
475.5915887260353
 30
0.0
 40
33.07348925756211
 50
1.73244382462386
 51
33.2675561753746
  0
SOLID
  5
12039
  8
0
  6
BYBLOCK
 62
     6
 10
741.3079414977991
 20
476.5939940862502
 30
0.0
 11
740.9746462581998
 21
476.5889548034165
 31
0.0
 12
741.1564117265006
 22
475.5915887260351
 32
0.0
 13
741.1564117265006
 23
475.5915887260351
 33
0.0
  0
SOLID
  5
1203A
  8
0
  6
BYBLOCK
 62
     6
 10
735.598310931503
 20
493.6405119813307
 30
0.0
 11
735.8742208222621
 21
493.8275543382779
 31
0.0
 12
735.1751388060409
 22
494.5617628320819
 32
0.0
 13
735.1751388060409
 23
494.5617628320819
 33
0.0
  0
TEXT
  5
1203B
  8
0
  6
CONTINUOUS
 62
     3
 10
740.0531515958808
 20
487.5066892189399
 30
0.0
 40
1.5
  1
35°
 50
287.4999999999991
  0
POINT
  5
1203C
  8
DEFPOINTS
  6
BYBLOCK
 62
     0
 10
740.4731340023957
 20
482.2796294322489
 30
0.0
  0
POINT
  5
1203D
  8
DEFPOINTS
  6
BYBLOCK
 62
     0
 10
708.08292246894
 20
475.5915887260364
 30
0.0
  0
POINT
  5
1203E
  8
DEFPOINTS
  6
BYBLOCK
 62
     0
 10
687.5829224689394
 20
475.5915887260354
 30
0.0
  0
POINT
  5
1203F
  8
DEFPOINTS
  6
BYBLOCK
 62
     0
 10
715.5829224689395
 20
475.5915887260353
 30
0.0
  0
POINT
  5
12040
  8
DEFPOINTS
  6
BYBLOCK
 62
     0
 10
712.1786826903844
 20
478.4594709077911
 30
0.0
  0
ENDBLK
  8
0
  0
BLOCK
  8
0
  2
*D11
 70
     1
 10
0.0
 20
0.0
 30
0.0
  0
LINE
  5
12044
  8
0
  6
BYBLOCK
 62
     6
 10
679.2297952986023
 20
480.5915887260355
 30
0.0
 11
674.5576663104505
 21
480.5915887260355
 31
0.0
  0
LINE
  5
12045
  8
0
  6
BYBLOCK
 62
     6
 10
679.2297952986023
 20
470.5915887260354
 30
0.0
 11
674.5576663104505
 21
470.5915887260354
 31
0.0
  0
LINE
  5
12046
  8
0
  6
BYBLOCK
 62
     6
 10
675.0576663104505
 20
479.5915887260355
 30
0.0
 11
675.0576663104505
 21
471.5915887260354
 31
0.0
  0
SOLID
  5
12047
  8
0
  6
BYBLOCK
 62
     6
 10
674.8909996437839
 20
479.5915887260355
 30
0.0
 11
675.2243329771171
 21
479.5915887260355
 31
0.0
 12
675.0576663104505
 22
480.5915887260355
 32
0.0
 13
675.0576663104505
 23
480.5915887260355
 33
0.0
  0
SOLID
  5
12048
  8
0
  6
BYBLOCK
 62
     6
 10
674.8909996437839
 20
471.5915887260354
 30
0.0
 11
675.2243329771171
 21
471.5915887260354
 31
0.0
 12
675.0576663104505
 22
470.5915887260354
 32
0.0
 13
675.0576663104505
 23
470.5915887260354
 33
0.0
  0
TEXT
  5
12049
  8
0
  6
CONTINUOUS
 62
     3
 10
674.0576663104506
 20
473.9665887260355
 30
0.0
 40
1.5
  1
\U+220510
 50
90.0
  0
POINT
  5
1204A
  8
DEFPOINTS
  6
BYBLOCK
 62
     0
 10
680.2297952986023
 20
480.5915887260355
 30
0.0
  0
POINT
  5
1204B
  8
DEFPOINTS
  6
BYBLOCK
 62
     0
 10
680.2297952986023
 20
470.5915887260354
 30
0.0
  0
POINT
  5
1204C
  8
DEFPOINTS
  6
BYBLOCK
 62
     0
 10
675.0576663104505
 20
470.5915887260354
 30
0.0
  0
ENDBLK
  8
0
  0
BLOCK
  8
0
  2
*D12
 70
     1
 10
0.0
 20
0.0
 30
0.0
  0
LINE
  5
12050
  8
0
  6
BYBLOCK
 62
     6
 10
724.7877638806041
 20
478.5915887260339
 30
0.0
 11
731.5485628854188
 21
478.5915887260339
 31
0.0
  0
LINE
  5
12051
  8
0
  6
BYBLOCK
 62
     6
 10
724.787763880604
 20
472.5915887260342
 30
0.0
 11
731.5485628854188
 21
472.5915887260342
 31
0.0
  0
LINE
  5
12052
  8
0
  6
BYBLOCK
 62
     6
 10
731.0485628854188
 20
477.5915887260339
 30
0.0
 11
731.0485628854188
 21
473.5915887260342
 31
0.0
  0
SOLID
  5
12053
  8
0
  6
BYBLOCK
 62
     6
 10
730.8818962187522
 20
477.5915887260339
 30
0.0
 11
731.2152295520855
 21
477.5915887260339
 31
0.0
 12
731.0485628854188
 22
478.5915887260339
 32
0.0
 13
731.0485628854188
 23
478.5915887260339
 33
0.0
  0
SOLID
  5
12054
  8
0
  6
BYBLOCK
 62
     6
 10
730.8818962187522
 20
473.5915887260342
 30
0.0
 11
731.2152295520855
 21
473.5915887260342
 31
0.0
 12
731.0485628854188
 22
472.5915887260342
 32
0.0
 13
731.0485628854188
 23
472.5915887260342
 33
0.0
  0
TEXT
  5
12055
  8
0
  6
CONTINUOUS
 62
     3
 10
730.048562885419
 20
474.341588726034
 30
0.0
 40
1.5
  1
\U+22056
 50
90.0
  0
POINT
  5
12056
  8
DEFPOINTS
  6
BYBLOCK
 62
     0
 10
723.7877638806041
 20
478.5915887260339
 30
0.0
  0
POINT
  5
12057
  8
DEFPOINTS
  6
BYBLOCK
 62
     0
 10
723.787763880604
 20
472.5915887260342
 30
0.0
  0
POINT
  5
12058
  8
DEFPOINTS
  6
BYBLOCK
 62
     0
 10
731.0485628854188
 20
472.5915887260342
 30
0.0
  0
ENDBLK
  8
0
  0
BLOCK
  8
0
  2
*D13
 70
     1
 10
0.0
 20
0.0
 30
0.0
  0
LINE
  5
1205C
  8
0
  6
BYBLOCK
 62
     6
 10
724.787763880604
 20
479.5915887260339
 30
0.0
 11
735.9526369944848
 21
479.5915887260339
 31
0.0
  0
LINE
  5
1205D
  8
0
  6
BYBLOCK
 62
     6
 10
724.787763880604
 20
471.591588726034
 30
0.0
 11
735.9526369944848
 21
471.591588726034
 31
0.0
  0
LINE
  5
1205E
  8
0
  6
BYBLOCK
 62
     6
 10
735.4526369944848
 20
478.5915887260339
 30
0.0
 11
735.4526369944848
 21
472.591588726034
 31
0.0
  0
SOLID
  5
1205F
  8
0
  6
BYBLOCK
 62
     6
 10
735.2859703278182
 20
478.5915887260339
 30
0.0
 11
735.6193036611514
 21
478.5915887260339
 31
0.0
 12
735.4526369944848
 22
479.5915887260339
 32
0.0
 13
735.4526369944848
 23
479.5915887260339
 33
0.0
  0
SOLID
  5
12060
  8
0
  6
BYBLOCK
 62
     6
 10
735.2859703278182
 20
472.591588726034
 30
0.0
 11
735.6193036611514
 21
472.591588726034
 31
0.0
 12
735.4526369944848
 22
471.591588726034
 32
0.0
 13
735.4526369944848
 23
471.591588726034
 33
0.0
  0
TEXT
  5
12061
  8
0
  6
CONTINUOUS
 62
     3
 10
734.4526369944847
 20
474.341588726034
 30
0.0
 40
1.5
  1
\U+22058
 50
90.0
  0
POINT
  5
12062
  8
DEFPOINTS
  6
BYBLOCK
 62
     0
 10
723.787763880604
 20
479.5915887260339
 30
0.0
  0
POINT
  5
12063
  8
DEFPOINTS
  6
BYBLOCK
 62
     0
 10
723.787763880604
 20
471.591588726034
 30
0.0
  0
POINT
  5
12064
  8
DEFPOINTS
  6
BYBLOCK
 62
     0
 10
735.4526369944848
 20
471.591588726034
 30
0.0
  0
ENDBLK
  8
0
  0
BLOCK
  8
0
  2
*D14
 70
     1
 10
0.0
 20
0.0
 30
0.0
  0
LINE
  5
12068
  8
0
  6
BYBLOCK
 62
     6
 10
693.2297952986019
 20
488.591588726037
 30
0.0
 11
693.2297952986019
 21
498.5913359214251
 31
0.0
  0
LINE
  5
12069
  8
0
  6
BYBLOCK
 62
     6
 10
723.2297952986028
 20
480.5917270921714
 30
0.0
 11
723.2297952986028
 21
498.5913359214251
 31
0.0
  0
LINE
  5
1206A
  8
0
  6
BYBLOCK
 62
     6
 10
694.2297952986019
 20
498.0913359214251
 30
0.0
 11
722.2297952986028
 21
498.0913359214251
 31
0.0
  0
SOLID
  5
1206B
  8
0
  6
BYBLOCK
 62
     6
 10
694.2297952986019
 20
498.2580025880918
 30
0.0
 11
694.2297952986019
 21
497.9246692547584
 31
0.0
 12
693.2297952986019
 22
498.0913359214251
 32
0.0
 13
693.2297952986019
 23
498.0913359214251
 33
0.0
  0
SOLID
  5
1206C
  8
0
  6
BYBLOCK
 62
     6
 10
722.2297952986028
 20
498.2580025880918
 30
0.0
 11
722.2297952986028
 21
497.9246692547584
 31
0.0
 12
723.2297952986028
 22
498.0913359214251
 32
0.0
 13
723.2297952986028
 23
498.0913359214251
 33
0.0
  0
TEXT
  5
1206D
  8
0
  6
CONTINUOUS
 62
     3
 10
707.1047952986023
 20
499.0913359214251
 30
0.0
 40
1.5
  1
30
  0
POINT
  5
1206E
  8
DEFPOINTS
  6
BYBLOCK
 62
     0
 10
693.2297952986019
 20
487.591588726037
 30
0.0
  0
POINT
  5
1206F
  8
DEFPOINTS
  6
BYBLOCK
 62
     0
 10
723.2297952986028
 20
479.5917270921714
 30
0.0
  0
POINT
  5
12070
  8
DEFPOINTS
  6
BYBLOCK
 62
     0
 10
723.2297952986028
 20
498.0913359214251
 30
0.0
  0
ENDBLK
  8
0
  0
BLOCK
  8
0
  2
*D15
 70
     1
 10
0.0
 20
0.0
 30
0.0
  0
LINE
  5
12074
  8
0
  6
BYBLOCK
 62
     6
 10
711.2297952986028
 20
470.3492247711888
 30
0.0
 11
711.2297952986028
 21
455.3852283519007
 31
0.0
  0
LINE
  5
12075
  8
0
  6
BYBLOCK
 62
     6
 10
723.2297952986028
 20
470.5917270921715
 30
0.0
 11
723.2297952986028
 21
455.3852283519007
 31
0.0
  0
LINE
  5
12076
  8
0
  6
BYBLOCK
 62
     6
 10
712.2297952986028
 20
455.8852283519007
 30
0.0
 11
722.2297952986028
 21
455.8852283519007
 31
0.0
  0
SOLID
  5
12077
  8
0
  6
BYBLOCK
 62
     6
 10
712.2297952986028
 20
456.0518950185673
 30
0.0
 11
712.2297952986028
 21
455.718561685234
 31
0.0
 12
711.2297952986028
 22
455.8852283519007
 32
0.0
 13
711.2297952986028
 23
455.8852283519007
 33
0.0
  0
SOLID
  5
12078
  8
0
  6
BYBLOCK
 62
     6
 10
722.2297952986028
 20
456.0518950185673
 30
0.0
 11
722.2297952986028
 21
455.718561685234
 31
0.0
 12
723.2297952986028
 22
455.8852283519007
 32
0.0
 13
723.2297952986028
 23
455.8852283519007
 33
0.0
  0
TEXT
  5
12079
  8
0
  6
CONTINUOUS
 62
     3
 10
716.2297952986028
 20
456.8852283519007
 30
0.0
 40
1.5
  1
12
  0
POINT
  5
1207A
  8
DEFPOINTS
  6
BYBLOCK
 62
     0
 10
711.2297952986028
 20
471.3492247711888
 30
0.0
  0
POINT
  5
1207B
  8
DEFPOINTS
  6
BYBLOCK
 62
     0
 10
723.2297952986028
 20
471.5917270921715
 30
0.0
  0
POINT
  5
1207C
  8
DEFPOINTS
  6
BYBLOCK
 62
     0
 10
723.2297952986028
 20
455.8852283519007
 30
0.0
  0
ENDBLK
  8
0
  0
BLOCK
  8
0
  2
A$C2C2A6848
 70
     0
 10
0.0
 20
0.0
 30
0.0
  0
LINE
  5
12083
  8
-
 62
     9
 10
5.999999238888222
 20
2.799999433517712
 30
0.0
 11
148.4999849888882
 21
2.799999433517712
 31
0.0
  0
LINE
  5
12084
  8
-
 62
     9
 10
148.4999849888882
 20
15.5999981535179
 30
0.0
 11
72.44665926088817
 21
15.5999981535179
 31
0.0
  0
LINE
  5
12085
  8
-
 62
     9
 10
105.7722143160707
 20
12.39999847351777
 30
0.0
 11
72.44665926088817
 21
12.39999847351777
 31
0.0
  0
LINE
  5
12086
  8
-
 62
     9
 10
105.7722143160707
 20
9.199998793517977
 30
0.0
 11
72.44665926088817
 21
9.199998793517977
 31
0.0
  0
LINE
  5
12087
  8
-
 62
     9
 10
105.7722143160707
 20
5.999999113517845
 30
0.0
 11
72.44665926088817
 21
5.999999113517845
 31
0.0
  0
TEXT
  5
12088
  8
文字
  6
CONTINUOUS
 62
     3
 10
79.06289101566578
 20
3.533655077460826
 30
0.0
 40
1.59999984
  1
更  改  内  容
  0
LINE
  5
12089
  8
-
 62
     9
 10
5.999999238888222
 20
104.9999892135176
 30
0.0
 11
148.4999849888882
 21
104.9999892135176
 31
0.0
  0
SOLID
  5
1208A
  8
0
  6
BYBLOCK
 62
     6
 10
83.78077929783058
 20
40.92088624313232
 30
0.0
 11
83.5048694070714
 21
41.1079286000795
 31
0.0
 12
83.08169728160942
 22
40.18667774932834
 32
0.0
 13
83.08169728160942
 23
40.18667774932834
 33
0.0
  0
LINE
  5
1208B
  8
0
  6
BYBLOCK
 62
     6
 10
64.48948094450725
 20
59.15685185537455
 30
0.0
 11
89.56297020206853
 21
59.15685185537626
 31
0.0
  0
LINE
  5
1208C
  8
0
  6
BYBLOCK
 62
     6
 10
60.90439321024155
 20
55.71539323726739
 30
0.0
 11
83.49127330375393
 21
39.89988953115284
 31
0.0
  0
DIMENSION
  5
1208D
  8
0
  2
*D13
 10
83.35919547005267
 20
55.15685185537512
 30
0.0
 11
81.60919547005267
 21
59.15685185537507
 31
0.0
 12
-652.0934415244321
 22
-416.4347368706589
 32
0.0
 70
     0
  1
%%C8
 13
71.69432235617182
 23
63.15685185537501
 33
0.0
 14
71.69432235617182
 24
55.15685185537512
 34
0.0
 50
90.0
  0
LINE
  5
1208E
  8
0
  6
BYBLOCK
 62
     6
 10
64.48948094450725
 20
59.15685185537615
 30
0.0
 11
89.5629702020683
 21
59.15685185537546
 31
0.0
  0
DIMENSION
  5
1208F
  8
圖層4
 62
     3
  2
*D10
 10
60.08524116595231
 20
62.02473403713219
 30
0.0
 11
89.20123293364225
 21
69.6284770340996
 31
0.0
 12
-652.0934415244321
 22
-416.4347368706589
 32
0.0
 70
     2
 13
35.48948094450725
 23
59.15685185537649
 33
0.0
 14
63.48948094450725
 24
59.15685185537637
 34
0.0
 15
55.98948094450782
 25
59.15685185537745
 35
0.0
 16
88.37969247796354
 26
65.84489256158997
 36
0.0
  0
LINE
  5
12090
  8
CENTER
  6
CENTERX2
 10
28.13635377417108
 20
59.15685185537507
 30
0.0
 11
91.68006296484123
 21
59.15685185537558
 31
0.0
  0
LINE
  5
12091
  8
-
 62
     9
 10
5.999999238888222
 20
2.799999433517712
 30
0.0
 11
5.999999238888222
 21
104.9999892135176
 31
0.0
  0
DIMENSION
  5
12092
  8
0
  2
*D15
 10
71.13635377417063
 20
39.45049148124173
 30
0.0
 11
65.13635377417063
 21
41.20049148124173
 31
0.0
 12
-652.0934415244321
 22
-416.4347368706589
 32
0.0
 70
     0
 13
59.13635377417063
 23
54.91448790052988
 33
0.0
 14
71.13635377417063
 24
55.15699022151256
 34
0.0
  0
TEXT
  5
12093
  8
文字
  6
CONTINUOUS
 62
     3
 10
11.71363642909947
 20
4.674044613014869
 30
0.0
 40
1.49999985
  1
ボイン卜・フイツ卜・ノズル
  0
TEXT
  5
12094
  8
文字
  6
CONTINUOUS
 62
     3
 10
7.764686111362966
 20
7.177033807935798
 30
0.0
 40
1.49999985
  1
表 面 処 理 :
  0
TEXT
  5
12095
  8
文字
  6
CONTINUOUS
 62
     3
 10
6.774113816196611
 20
11.02408274869356
 30
0.0
 40
1.49999985
  1
註:
  0
TEXT
  5
12096
  8
文字
  6
CONTINUOUS
 62
     3
 10
20.17376765663429
 20
7.110670514353499
 30
0.0
 40
1.49999985
  1
黒 染
  0
LINE
  5
12097
  8
-
 62
     9
 10
72.44665926088817
 20
2.799999433517712
 30
0.0
 11
72.44665926088817
 21
15.5999981535179
 31
0.0
  0
LINE
  5
12098
  8
-
 62
     9
 10
72.44665926088817
 20
15.5999981535179
 30
0.0
 11
72.44665926088817
 21
2.799999433517712
 31
0.0
  0
LINE
  5
12099
  8
-
 10
76.76211443616978
 20
2.799999433517712
 30
0.0
 11
76.76211443616944
 21
15.5999981535179
 31
0.0
  0
TEXT
  5
1209A
  8
0
  6
CONTINUOUS
 62
     3
 10
74.33115231794409
 20
13.38323822402134
 30
0.0
 40
1.119999888
  1
3
 41
0.5
  0
LINE
  5
1209B
  8
0
 62
     3
 10
74.57024251249084
 20
14.91646598117626
 30
0.0
 11
75.41480013660362
 21
13.22735073295104
 31
0.0
  0
LINE
  5
1209C
  8
0
 62
     3
 10
74.57024251249084
 20
14.91646598117626
 30
0.0
 11
73.72568488837874
 21
13.22735073295104
 31
0.0
  0
LINE
  5
1209D
  8
0
 62
     3
 10
73.72568488837874
 20
13.22735073295104
 30
0.0
 11
75.41480013660362
 21
13.22735073295104
 31
0.0
  0
LINE
  5
1209E
  8
0
 62
     3
 10
74.61376520087401
 20
5.192330327610364
 30
0.0
 11
75.45832282498611
 21
3.503215079385143
 31
0.0
  0
LINE
  5
1209F
  8
0
 62
     3
 10
74.61376520087401
 20
5.192330327610364
 30
0.0
 11
73.76920757676089
 21
3.503215079385143
 31
0.0
  0
LINE
  5
120A0
  8
0
 62
     3
 10
73.76920757676089
 20
3.503215079385143
 30
0.0
 11
75.45832282498611
 21
3.503215079385143
 31
0.0
  0
LINE
  5
120A1
  8
0
 62
     3
 10
73.8017659692772
 20
10.02398094672861
 30
0.0
 11
75.49088121750242
 21
10.02398094672861
 31
0.0
  0
LINE
  5
120A2
  8
0
 62
     3
 10
73.84482785583953
 20
6.820050145702851
 30
0.0
 11
75.53394310406475
 21
6.820050145702851
 31
0.0
  0
TEXT
  5
120A3
  8
0
  6
CONTINUOUS
 62
     3
 10
74.6059152332291
 20
7.006396802275556
 30
0.0
 40
1.119999888
  1
1
 41
0.5
  0
LINE
  5
120A4
  8
0
 62
     3
 10
74.68938547995197
 20
8.509165393928072
 30
0.0
 11
75.53394310406475
 21
6.820050145702851
 31
0.0
  0
LINE
  5
120A5
  8
0
 62
     3
 10
74.68938547995197
 20
8.509165393928072
 30
0.0
 11
73.84482785583953
 21
6.820050145702851
 31
0.0
  0
LINE
  5
120A6
  8
0
 62
     3
 10
74.64632359338998
 20
11.71309619495383
 30
0.0
 11
75.49088121750242
 21
10.02398094672861
 31
0.0
  0
TEXT
  5
120A7
  8
0
  6
CONTINUOUS
 62
     3
 10
74.46948075183604
 20
10.14185735342897
 30
0.0
 40
1.119999888
  1
2
 41
0.5
  0
LINE
  5
120A8
  8
0
 62
     3
 10
74.64632359338998
 20
11.71309619495383
 30
0.0
 11
73.8017659692772
 21
10.02398094672861
 31
0.0
  0
LINE
  5
120A9
  8
2
 10
29.18635377416945
 20
69.05685185537362
 30
0.0
 11
40.13635377416995
 21
69.05685185537476
 31
0.0
  0
LINE
  5
120AA
  8
2
 10
28.33635377416977
 20
68.20685185537371
 30
0.0
 11
40.1363537741704
 21
68.20685185537553
 31
0.0
  0
LINE
  5
120AB
  8
2
  6
HIDDEN
 10
28.13635377417017
 20
54.15685185537507
 30
0.0
 11
41.13635377417017
 21
54.15685185537507
 31
0.0
  0
LINE
  5
120AC
  8
2
  6
HIDDEN
 10
28.13635377417017
 20
64.15685185537512
 30
0.0
 11
41.13635377417017
 21
64.15685185537541
 31
0.0
  0
LINE
  5
120AD
  8
2
 10
28.33654642236058
 20
50.10685611484359
 30
0.0
 11
40.13654641968765
 21
50.10710730259706
 31
0.0
  0
LINE
  5
120AE
  8
2
 10
29.18656451620086
 20
49.25687420906945
 30
0.0
 11
40.13656451372037
 21
49.25710730279042
 31
0.0
  0
DIMENSION
  5
120AF
  8
0
  2
*D9
 10
28.13635377417052
 20
81.6645214991002
 30
0.0
 11
34.63635377417017
 21
83.4145214991002
 31
0.0
 12
-652.0934415244321
 22
-416.4347368706589
 32
0.0
 70
     0
 13
41.13635377416972
 23
71.15685185537808
 33
0.0
 14
28.13635377417052
 24
64.6568518553766
 34
0.0
  0
LINE
  5
120B0
  8
2
 10
28.13635377417108
 20
59.15685185537507
 30
0.0
 11
28.13635377416972
 21
68.00685185537367
 31
0.0
  0
TEXT
  5
120B1
  8
圖層4
  6
CONTINUOUS
 62
     3
 10
17.52293926502971
 20
42.95896804795539
 30
0.0
 40
1.8
  1
M20x1.5P
  0
INSERT
  5
120B2
  8
圖層4
 62
     6
  2
*X34
 10
0.0
 20
0.0
 30
0.0
  0
LINE
  5
120B3
  8
2
 10
28.13635377417108
 20
59.15685185537507
 30
0.0
 11
28.13654216498617
 21
50.30685185737872
 31
0.0
  0
LINE
  5
120B4
  8
2
 10
28.13654216498617
 20
50.30685185737872
 30
0.0
 11
29.18656451620063
 21
49.25687420906945
 31
0.0
  0
DIMENSION
  5
120B5
  8
0
  2
*D11
 10
22.96422478601835
 20
54.15685185537649
 30
0.0
 11
21.21422478601835
 21
59.15685185537654
 31
0.0
 12
-652.0934415244321
 22
-416.4347368706589
 32
0.0
 70
     0
  1
%%c<>
 13
28.13635377417017
 23
64.15685185537654
 33
0.0
 14
28.13635377417017
 24
54.15685185537649
 34
0.0
 50
90.0
  0
LINE
  5
120B6
  8
2
 10
28.13635377416972
 20
68.00685185537367
 30
0.0
 11
29.18635377416922
 21
69.05685185537362
 31
0.0
  0
DIMENSION
  5
120B7
  8
0
  2
*D14
 10
71.13635377417063
 20
81.65659905076615
 30
0.0
 11
56.13635377417017
 21
83.40659905076615
 31
0.0
 12
-652.0934415244321
 22
-416.4347368706589
 32
0.0
 70
     0
 13
41.13635377416972
 23
71.15685185537808
 33
0.0
 14
71.13635377417063
 24
63.15699022151244
 34
0.0
  0
ARC
  5
120B8
  8
2
 10
42.75170874435696
 20
64.90103259719416
 30
0.0
 40
10.38904026542821
 50
326.4693202182622
 51
37.02444096381954
  0
LINE
  5
120B9
  8
0
 10
53.13635377417154
 20
70.4568518553794
 30
0.0
 11
53.13635377417154
 21
47.85685185537403
 31
0.0
  0
ARC
  5
120BA
  8
0
 10
50.63635377417063
 20
59.1571285876492
 30
0.0
 40
9.5
 50
26.52535201660857
 51
54.51791613831718
  0
LINE
  5
120BB
  8
2
 10
41.13635377417063
 20
59.15699022151148
 30
0.0
 11
41.13635377416972
 21
71.15685185537808
 31
0.0
  0
LINE
  5
120BC
  8
2
 10
56.13635377416972
 20
69.95685185537667
 30
0.0
 11
56.13635377417108
 21
59.15685185537876
 31
0.0
  0
LINE
  5
120BD
  8
2
  6
HIDDEN
 10
59.13635377417063
 20
62.15699022151256
 30
0.0
 11
71.13635377417063
 21
62.15699022151244
 31
0.0
  0
LINE
  5
120BE
  8
2
 10
59.13635377417063
 20
55.15699022151256
 30
0.0
 11
71.13635377417063
 21
55.15699022151256
 31
0.0
  0
LINE
  5
120BF
  8
2
  6
HIDDEN
 10
59.13635377417063
 20
56.1569902215125
 30
0.0
 11
71.13635377417063
 21
56.15699022151267
 31
0.0
  0
LINE
  5
120C0
  8
2
 10
59.13635377417063
 20
63.1569902215125
 30
0.0
 11
71.13635377417063
 21
63.15699022151244
 31
0.0
  0
ARC
  5
120C1
  8
2
 10
42.78330191686803
 20
53.41155756707394
 30
0.0
 40
10.35760298403346
 50
322.8520119117833
 51
33.5847021686312
  0
ARC
  5
120C2
  8
0
 10
50.63635377417063
 20
59.1571285876492
 30
0.0
 40
9.5
 50
305.4820838616811
 51
333.4746479833914
  0
LINE
  5
120C3
  8
2
 10
41.1363537741704
 20
59.15685185537666
 30
0.0
 11
41.13635377416972
 21
47.15685185537512
 31
0.0
  0
LINE
  5
120C4
  8
2
 10
56.13635377416949
 20
48.35685185537665
 30
0.0
 11
56.13635377417108
 21
59.15685185537467
 31
0.0
  0
LINE
  5
120C5
  8
2
 10
41.13635377416972
 20
47.15685185537512
 30
0.0
 11
51.13635377417154
 21
47.15685185537421
 31
0.0
  0
ARC
  5
120C6
  8
2
 10
40.13656770678506
 20
49.10710730282364
 30
0.0
 40
1.0
 50
0.0012196608632477
 51
90.0012196608595
  0
LINE
  5
120C7
  8
0
 10
40.13654641968765
 20
50.10710730259706
 30
0.0
 11
40.13656451372037
 21
49.25710730279019
 31
0.0
  0
LINE
  5
120C8
  8
0
 10
51.13635377417154
 20
47.15685185537399
 30
0.0
 11
53.13635377417154
 21
47.85685185537403
 31
0.0
  0
LINE
  5
120C9
  8
0
 10
53.13635377417154
 20
47.85685185537403
 30
0.0
 11
56.13635377416949
 21
48.35685185537665
 31
0.0
  0
LINE
  5
120CA
  8
圖層4
 62
     0
 10
41.13635377417063
 20
59.15699022151142
 30
0.0
 11
51.41191048756934
 21
59.15168145208327
 31
0.0
  0
POINT
  5
120CB
  8
DEFPOINTS
  6
BYBLOCK
 62
     0
 10
60.08524116595254
 20
56.28896967361851
 30
0.0
  0
POINT
  5
120CC
  8
DEFPOINTS
  6
BYBLOCK
 62
     0
 10
55.98948094450782
 20
59.15685185537308
 30
0.0
  0
LINE
  5
120CD
  8
0
 10
59.13635377417063
 20
63.15699022151233
 30
0.0
 11
59.13635377417063
 21
55.15699022151256
 31
0.0
  0
LINE
  5
120CE
  8
2
 10
59.13635377417063
 20
63.3997692747684
 30
0.0
 11
59.13635377417063
 21
54.91448790052988
 31
0.0
  0
POINT
  5
120CF
  8
DEFPOINTS
  6
BYBLOCK
 62
     0
 10
59.527272583951
 20
56.28910803975793
 30
0.0
  0
POINT
  5
120D0
  8
DEFPOINTS
  6
BYBLOCK
 62
     0
 10
55.43151236250651
 20
59.1569902215129
 30
0.0
  0
POINT
  5
120D1
  8
DEFPOINTS
  6
BYBLOCK
 62
     0
 10
59.52727258395214
 20
56.28910803974685
 30
0.0
  0
POINT
  5
120D2
  8
DEFPOINTS
  6
BYBLOCK
 62
     0
 10
55.4315123625064
 20
59.15699022150051
 30
0.0
  0
POINT
  5
120D3
  8
DEFPOINTS
  6
BYBLOCK
 62
     0
 10
59.5272725839518
 20
56.28910803975253
 30
0.0
  0
POINT
  5
120D4
  8
DEFPOINTS
  6
BYBLOCK
 62
     0
 10
55.43151236250606
 20
59.15699022150665
 30
0.0
  0
DIMENSION
  5
120D5
  8
0
  2
*D12
 10
78.95512136098671
 20
56.15685185537524
 30
0.0
 11
77.20512136098671
 21
59.15685185537512
 31
0.0
 12
-652.0934415244321
 22
-416.4347368706589
 32
0.0
 70
     0
  1
%%C6
 13
71.69432235617194
 23
62.15685185537501
 33
0.0
 14
71.69432235617182
 24
56.15685185537524
 34
0.0
 50
90.0
  0
POINT
  5
120D6
  8
DEFPOINTS
  6
BYBLOCK
 62
     0
 10
63.48948094450725
 20
59.15685185537455
 30
0.0
  0
LINE
  5
120D7
  8
0
 10
71.13635377417063
 20
63.15699022151233
 30
0.0
 11
71.13635377417063
 21
55.15699022151256
 31
0.0
  0
POINT
  5
120D8
  8
DEFPOINTS
  6
BYBLOCK
 62
     0
 10
62.93151236250606
 20
59.15699022151364
 30
0.0
  0
LINE
  5
120D9
  8
2
 10
41.13635377416972
 20
71.15685185537808
 30
0.0
 11
51.13635377417154
 21
71.15685185537922
 31
0.0
  0
LINE
  5
120DA
  8
0
 10
40.1363537741704
 20
68.20685185537553
 30
0.0
 11
40.13635377416995
 21
69.05685185537499
 31
0.0
  0
ARC
  5
120DB
  8
2
 10
40.13635377416995
 20
69.20685185537553
 30
0.0
 40
1.0
 50
270.0000000000088
 51
0.0000000000050011
  0
LINE
  5
120DC
  8
0
 10
51.13635377417154
 20
71.15685185537944
 30
0.0
 11
53.13635377417154
 21
70.4568518553794
 31
0.0
  0
LINE
  5
120DD
  8
0
 10
53.13635377417154
 20
70.4568518553794
 30
0.0
 11
56.13635377417199
 21
69.95685185537667
 31
0.0
  0
LINE
  5
120DE
  8
-
 62
     9
 10
-0.0000001611119842
 20
104.9999892135176
 30
0.0
 11
-0.0000001611119842
 21
103.9999893135177
 31
0.0
  0
LINE
  5
120DF
  8
-
 62
     9
 10
0.9999997388881638
 20
104.9999892135176
 30
0.0
 11
-0.0000001611119842
 21
104.9999892135176
 31
0.0
  0
LINE
  5
120E0
  8
-
 62
     9
 10
-0.0000001611119842
 20
103.9999893135177
 30
0.0
 11
-0.0000001611119842
 21
104.9999892135176
 31
0.0
  0
LINE
  5
120E1
  8
-
 62
     9
 10
148.4999849888882
 20
2.799999433517712
 30
0.0
 11
148.4999849888882
 21
104.9999892135176
 31
0.0
  0
LINE
  5
120E2
  8
文字
 62
     3
 39
1.279999872
 10
126.7094113050616
 20
14.41081627599755
 30
0.0
 11
128.415588323471
 21
14.83736053059971
 31
0.0
  0
TEXT
  5
120E3
  8
0
  6
CONTINUOUS
 62
     3
 10
125.8439162263626
 20
9.905272015414434
 30
0.0
 40
1.59999984
  1
小 柳
 41
0.5
  0
TEXT
  5
120E4
  8
0
  6
CONTINUOUS
 62
     3
 10
115.7082861494512
 20
4.522727712452991
 30
0.0
 40
1.919999808
  1
日機株式会社
 41
1.5
  0
LINE
  5
120E5
  8
-
 62
     9
 10
148.4999849888882
 20
9.199998793517977
 30
0.0
 11
114.7808289732716
 21
9.199998793517977
 31
0.0
  0
LINE
  5
120E6
  8
-
 62
     9
 10
136.9568267556717
 20
12.39999847351777
 30
0.0
 11
105.7722143160707
 21
12.39999847351777
 31
0.0
  0
LINE
  5
120E7
  8
-
 10
94.84520897189464
 20
2.799999433517712
 30
0.0
 11
94.84520897189498
 21
15.5999981535179
 31
0.0
  0
LINE
  5
120E8
  8
-
 62
     9
 10
105.7722143160707
 20
2.799999433517712
 30
0.0
 11
105.7722143160707
 21
15.5999981535179
 31
0.0
  0
LINE
  5
120E9
  8
-
 10
100.3771780281572
 20
2.799999433517712
 30
0.0
 11
100.3771780281572
 21
15.5999981535179
 31
0.0
  0
LINE
  5
120EA
  8
-
 62
     9
 10
114.7808289732716
 20
15.5999981535179
 30
0.0
 11
114.7808289732716
 21
2.799999433517712
 31
0.0
  0
LINE
  5
120EB
  8
-
 62
     8
 10
117.660828685272
 20
15.5999981535179
 30
0.0
 11
117.660828685272
 21
9.199998793517977
 31
0.0
  0
LINE
  5
120EC
  8
-
 62
     9
 10
122.1728282340715
 20
15.5999981535179
 30
0.0
 11
122.1728282340715
 21
9.199998793517977
 31
0.0
  0
LINE
  5
120ED
  8
-
 62
     9
 10
105.7722143160707
 20
9.199998793517977
 30
0.0
 11
88.97999094088823
 21
9.199998793517977
 31
0.0
  0
LINE
  5
120EE
  8
-
 62
     9
 10
105.7722143160707
 20
12.39999847351777
 30
0.0
 11
88.97999094088823
 21
12.39999847351777
 31
0.0
  0
TEXT
  5
120EF
  8
文字
  6
CONTINUOUS
 62
     3
 10
95.82865824868766
 20
3.564483765489374
 30
0.0
 40
1.19999988
  1
担  当
  0
TEXT
  5
120F0
  8
文字
  6
CONTINUOUS
 62
     3
 10
101.2184653762299
 20
3.564483765489374
 30
0.0
 40
1.19999988
  1
日 付
  0
TEXT
  5
120F1
  8
0
  6
CONTINUOUS
 62
     3
 10
115.2521750999465
 20
13.15037216285008
 30
0.0
 40
1.439999856
  1
日 付
 41
0.5
  0
TEXT
  5
120F2
  8
0
  6
CONTINUOUS
 62
     3
 10
115.1767116698318
 20
10.21631494315896
 30
0.0
 40
1.439999856
  1
製 図
 41
0.5
  0
TEXT
  5
120F3
  8
文字
  6
CONTINUOUS
 62
     3
 10
112.0446271895904
 20
11.15318011026023
 30
0.0
 40
0.6758399324159999
  1
±0.05
  0
TEXT
  5
120F4
  8
文字
  6
CONTINUOUS
 62
     3
 10
112.6289311375401
 20
12.87017739642713
 30
0.0
 40
0.5068799493120001
  1
容許公差
  0
TEXT
  5
120F5
  8
文字
  6
CONTINUOUS
 62
     3
 10
109.8986409260105
 20
11.11936925639062
 30
0.0
 40
0.7603199239680001
  1
1-4
  0
TEXT
  5
120F6
  8
文字
  6
CONTINUOUS
 62
     3
 10
105.1736105911769
 20
14.37669882940469
 30
0.0
 40
0.7999999200000001
  1
一   般   公   差
  0
LINE
  5
120F7
  8
-
 62
     8
 10
114.7808289732716
 20
10.79999863351787
 30
0.0
 11
105.7722143160707
 21
10.79999863351787
 31
0.0
  0
LINE
  5
120F8
  8
-
 62
     9
 10
114.7808289732716
 20
13.99999831351784
 30
0.0
 11
105.7722143160707
 21
13.99999831351784
 31
0.0
  0
TEXT
  5
120F9
  8
文字
  6
CONTINUOUS
 62
     3
 10
106.0608334869005
 20
12.67790186015922
 30
0.0
 40
0.8447999155200001
  1
寸     法
  0
TEXT
  5
120FA
  8
文字
  6
CONTINUOUS
 62
     3
 10
112.169364265875
 20
7.954521929030198
 30
0.0
 40
0.6758399324159999
  1
±0.1
  0
TEXT
  5
120FB
  8
文字
  6
CONTINUOUS
 62
     3
 10
112.2250146664326
 20
6.449723025797885
 30
0.0
 40
0.6758399324159999
  1
±0.2
  0
TEXT
  5
120FC
  8
文字
  6
CONTINUOUS
 62
     3
 10
112.267960699229
 20
3.215316308661733
 30
0.0
 40
0.6758399324159999
  1
±0.5
  0
TEXT
  5
120FD
  8
文字
  6
CONTINUOUS
 62
     3
 10
112.267960699229
 20
4.828943162239062
 30
0.0
 40
0.6758399324159999
  1
±0.3
  0
LINE
  5
120FE
  8
-
 62
     8
 10
114.7808289732716
 20
9.199998793517977
 30
0.0
 11
105.7722143160707
 21
9.199998793517977
 31
0.0
  0
LINE
  5
120FF
  8
-
 62
     8
 10
114.7808289732716
 20
7.599998953518082
 30
0.0
 11
105.7722143160707
 21
7.599998953518082
 31
0.0
  0
LINE
  5
12100
  8
-
 62
     8
 10
114.7808289732716
 20
5.999999113517845
 30
0.0
 11
105.7722143160707
 21
5.999999113517845
 31
0.0
  0
LINE
  5
12101
  8
-
 62
     8
 10
114.7808289732716
 20
4.399999273517608
 30
0.0
 11
105.7722143160707
 21
4.399999273517608
 31
0.0
  0
TEXT
  5
12102
  8
文字
  6
CONTINUOUS
 62
     3
 10
106.9373050937345
 20
3.215316308661733
 30
0.0
 40
0.6758399324159999
  1
1000-1500
  0
TEXT
  5
12103
  8
文字
  6
CONTINUOUS
 62
     3
 10
107.2509940149539
 20
4.80113043911445
 30
0.0
 40
0.6758399324159999
  1
250-1000
  0
TEXT
  5
12104
  8
文字
  6
CONTINUOUS
 62
     3
 10
108.4767019589816
 20
7.97588477469295
 30
0.0
 40
0.7603199239680001
  1
16-63
  0
TEXT
  5
12105
  8
文字
  6
CONTINUOUS
 62
     3
 10
107.5369677210385
 20
6.407418754407636
 30
0.0
 40
0.7603199239680001
  1
63-250
  0
TEXT
  5
12106
  8
文字
  6
CONTINUOUS
 62
     3
 10
112.1439953172044
 20
9.65608483451354
 30
0.0
 40
0.6758399324159999
  1
±0.07
  0
LINE
  5
12107
  8
-
 62
     8
 10
111.9656368928966
 20
2.799999433517712
 30
0.0
 11
111.9656368928966
 21
13.99999831351784
 31
0.0
  0
TEXT
  5
12108
  8
文字
  6
CONTINUOUS
 62
     3
 10
109.1049687587086
 20
9.59566914922285
 30
0.0
 40
0.7603199239680001
  1
4-16
  0
TEXT
  5
12109
  8
0
  6
CONTINUOUS
 62
     3
 10
118.3119679388149
 20
13.36492708834971
 30
0.0
 40
1.19999988
  1
030221
 41
0.5
  0
LINE
  5
1210A
  8
文字
 62
     3
 10
123.9368736501467
 20
12.9207763414758
 30
0.0
 11
123.9368736501467
 21
14.98020614599551
 31
0.0
  0
CIRCLE
  5
1210B
  8
文字
 62
     3
 10
123.9368736501467
 20
13.98427202139521
 30
0.0
 40
0.8530885092046258
  0
CIRCLE
  5
1210C
  8
文字
 62
     3
 10
123.9368736501467
 20
13.98427202139521
 30
0.0
 40
0.4265442546023129
  0
LINE
  5
1210D
  8
文字
 62
     3
 10
122.8707621439976
 20
13.98427202139521
 30
0.0
 11
125.0666629222729
 21
13.98427202139521
 31
0.0
  0
TEXT
  5
1210E
  8
0
  6
CONTINUOUS
 62
     3
 10
118.5445806500582
 20
9.905272015414548
 30
0.0
 40
1.59999984
  1
李国慶
 41
0.5
  0
LINE
  5
1210F
  8
-
 62
     8
 10
125.0528279460716
 20
12.39999847351777
 30
0.0
 11
125.0528279460716
 21
9.199998793517977
 31
0.0
  0
TEXT
  5
12110
  8
0
  6
CONTINUOUS
 62
     3
 10
122.4929439995144
 20
10.24456866844729
 30
0.0
 40
1.439999856
  1
検 図
 41
0.5
  0
LINE
  5
12111
  8
-
 62
     9
 10
136.9568267556717
 20
15.5999981535179
 30
0.0
 11
136.9568267556717
 21
2.799999433517712
 31
0.0
  0
LINE
  5
12112
  8
-
 62
     9
 10
129.5648274948718
 20
15.5999981535179
 30
0.0
 11
129.5648274948718
 21
9.199998793517977
 31
0.0
  0
LINE
  5
12113
  8
-
 62
     8
 10
132.4448272068715
 20
15.5999981535179
 30
0.0
 11
132.4448272068715
 21
9.199998793517977
 31
0.0
  0
LINE
  5
12114
  8
-
 62
     9
 10
148.4999849888882
 20
-0.0000002864823614
 30
0.0
 11
147.6999850688881
 21
-0.0000002864823614
 31
0.0
  0
LINE
  5
12115
  8
-
 62
     9
 10
148.4999849888882
 20
-0.0000002864823614
 30
0.0
 11
147.6999850688881
 21
-0.0000002864823614
 31
0.0
  0
TEXT
  5
12116
  8
文字
  6
CONTINUOUS
 62
     3
 10
140.6246559747918
 20
3.298330096265179
 30
0.0
 40
1.19999988
  1
NP80013
  0
TEXT
  5
12117
  8
0
  6
CONTINUOUS
 62
     3
 10
133.6067663937934
 20
13.3223668458413
 30
0.0
 40
1.439999856
  1
2 : 1
 41
0.5
  0
LINE
  5
12118
  8
文字
 62
     3
 10
128.415588323471
 20
13.13118351219055
 30
0.0
 11
128.415588323471
 21
14.83736053059971
 31
0.0
  0
TEXT
  5
12119
  8
0
  6
CONTINUOUS
 62
     3
 10
129.9861147551262
 20
13.38083915281139
 30
0.0
 40
1.439999856
  1
尺 度
 41
0.5
  0
TEXT
  5
1211A
  8
0
  6
CONTINUOUS
 62
     3
 10
129.9617688593751
 20
10.07363914828896
 30
0.0
 40
1.439999856
  1
承 認
 41
0.5
  0
LINE
  5
1211B
  8
文字
 62
     3
 10
126.7094113050616
 20
13.55772776679288
 30
0.0
 11
126.7094113050616
 21
14.41081627599755
 31
0.0
  0
LINE
  5
1211C
  8
文字
 62
     3
 10
126.4639065791223
 20
13.98427202139521
 30
0.0
 11
128.5687608991869
 21
13.98427202139521
 31
0.0
  0
LINE
  5
1211D
  8
文字
 62
     3
 10
126.7094113050616
 20
13.55772776679288
 30
0.0
 11
128.415588323471
 21
13.13118351219055
 31
0.0
  0
TEXT
  5
1211E
  8
0
  6
CONTINUOUS
 62
     3
 10
137.8296907786676
 20
13.88013703052089
 30
0.0
 40
1.279999872
  1
品     名
 41
0.5
  0
TEXT
  5
1211F
  8
0
  6
CONTINUOUS
 62
     3
 10
137.8021585232098
 20
7.216852217388994
 30
0.0
 40
1.279999872
  1
図  面  番  号
 41
0.5
  0
TEXT
  5
12120
  8
文字
  6
CONTINUOUS
 62
     3
 10
139.8988510625839
 20
9.92823732365146
 30
0.0
 40
0.9999998999999999
  1
NNM20-30
  0
LINE
  5
12121
  8
-
 62
     9
 10
148.4999849888882
 20
-0.0000002864823614
 30
0.0
 11
148.4999849888882
 21
0.799999633517757
 31
0.0
  0
DIMENSION
  5
12122
  8
0
  2
*D8
 10
126.2492947189374
 20
71.12472210962005
 30
0.0
 11
124.4992947189374
 21
59.12472210962
 31
0.0
 12
-666.6507011089558
 22
-416.4347368706589
 32
0.0
 70
     0
 13
115.2450884918592
 23
47.12472210961994
 33
0.0
 14
115.2450884918597
 24
71.12472210962005
 34
0.0
 50
89.9999999999988
  0
CIRCLE
  5
12123
  8
0
 10
108.316885261584
 20
59.12472210962017
 30
0.0
 40
11.99999999999997
  0
LINE
  5
12124
  8
CENTER
  6
CENTERX2
 10
108.3168852615844
 20
71.12472210962017
 30
0.0
 11
108.3168852615839
 21
47.12472210962017
 31
0.0
  0
CIRCLE
  5
12125
  8
0
 10
108.316885261584
 20
59.12472210962028
 30
0.0
 40
6.5
  0
POLYLINE
  5
12126
  8
0
 66
     1
 10
0.0
 20
0.0
 30
0.0
 70
     1
  0
VERTEX
  5
12774
  8
0
 10
101.388682031309
 20
71.1247221096204
 30
0.0
  0
VERTEX
  5
12775
  8
0
 10
94.46047880103299
 20
59.12472210962039
 30
0.0
  0
VERTEX
  5
12776
  8
0
 10
101.3886820313086
 20
47.12472210962028
 30
0.0
  0
VERTEX
  5
12777
  8
0
 10
115.2450884918592
 20
47.12472210961994
 30
0.0
  0
VERTEX
  5
12778
  8
0
 10
122.1732917221353
 20
59.12472210961994
 30
0.0
  0
VERTEX
  5
12779
  8
0
 10
115.2450884918597
 20
71.12472210962005
 30
0.0
  0
SEQEND
  5
12791
  8
0
  0
CIRCLE
  5
12127
  8
0
 10
108.3168852615845
 20
59.12472210962051
 30
0.0
 40
10.7
  0
CIRCLE
  5
12128
  8
0
 10
108.316885261584
 20
59.12472210962028
 30
0.0
 40
5.0
  0
LINE
  5
12129
  8
CENTER
  6
CENTERX2
 10
94.46047880103299
 20
59.12472210962039
 30
0.0
 11
122.1732917221353
 21
59.12472210961994
 31
0.0
  0
ARC
  5
1212A
  8
0
  6
BYBLOCK
 62
     6
 10
55.98948094450645
 20
59.15685185537416
 30
0.0
 40
33.0734892575621
 50
326.7324438246271
 51
358.2675561753795
  0
POINT
  5
1212B
  8
DEFPOINTS
  6
BYBLOCK
 62
     0
 10
86.35809149153238
 20
46.05711196814212
 30
0.0
  0
TEXT
  5
1212C
  8
0
  6
CONTINUOUS
 62
     3
 10
88.76190326412782
 20
49.13582042477995
 30
0.0
 40
1.5
  1
35°
 50
249.7758114400701
  0
POINT
  5
1212D
  8
DEFPOINTS
  6
BYBLOCK
 62
     0
 10
86.35809149153113
 20
46.0571119681419
 30
0.0
  0
SOLID
  5
1212E
  8
0
  6
BYBLOCK
 62
     6
 10
88.88120473376773
 20
58.15948577799486
 30
0.0
 11
89.2144999733672
 21
58.15444649516115
 31
0.0
 12
89.06297020206853
 22
59.15685185537626
 32
0.0
 13
89.06297020206853
 23
59.15685185537626
 33
0.0
  0
ENDBLK
  8
0
  0
BLOCK
  8
0
  2
*D17
 70
     1
 10
0.0
 20
0.0
 30
0.0
  0
LINE
  5
122A4
  8
0
  6
BYBLOCK
 62
     6
 10
442.7130036508427
 20
733.897310166554
 30
0.0
 11
458.2372121048188
 21
733.897310166554
 31
0.0
  0
LINE
  5
122A5
  8
0
  6
BYBLOCK
 62
     6
 10
442.7130036508432
 20
701.897310166554
 30
0.0
 11
458.2372121048188
 21
701.897310166554
 31
0.0
  0
LINE
  5
122A6
  8
0
  6
BYBLOCK
 62
     6
 10
457.6372121048188
 20
732.697310166554
 30
0.0
 11
457.6372121048188
 21
703.097310166554
 31
0.0
  0
SOLID
  5
122A7
  8
0
  6
BYBLOCK
 62
     6
 10
457.4372121048188
 20
732.697310166554
 30
0.0
 11
457.8372121048188
 21
732.697310166554
 31
0.0
 12
457.6372121048188
 22
733.897310166554
 32
0.0
 13
457.6372121048188
 23
733.897310166554
 33
0.0
  0
SOLID
  5
122A8
  8
0
  6
BYBLOCK
 62
     6
 10
457.4372121048188
 20
703.097310166554
 30
0.0
 11
457.8372121048188
 21
703.097310166554
 31
0.0
 12
457.6372121048188
 22
701.897310166554
 32
0.0
 13
457.6372121048188
 23
701.897310166554
 33
0.0
  0
TEXT
  5
122A9
  8
0
  6
CONTINUOUS
 62
     3
 10
456.6372121048187
 20
715.8139768332207
 30
0.0
 40
2.5
  1
32
 50
90.0
  0
POINT
  5
122AA
  8
DEFPOINTS
  6
BYBLOCK
 62
     0
 10
442.1130036508426
 20
733.897310166554
 30
0.0
  0
POINT
  5
122AB
  8
DEFPOINTS
  6
BYBLOCK
 62
     0
 10
442.1130036508432
 20
701.897310166554
 30
0.0
  0
POINT
  5
122AC
  8
DEFPOINTS
  6
BYBLOCK
 62
     0
 10
457.6372121048188
 20
701.897310166554
 30
0.0
  0
ENDBLK
  8
0
  0
BLOCK
  8
0
  2
*D18
 70
     1
 10
0.0
 20
0.0
 30
0.0
  0
LINE
  5
122B0
  8
0
  6
BYBLOCK
 62
     6
 10
329.834236807501
 20
717.8973101665553
 30
0.0
 11
359.8798664111017
 21
717.8973101665554
 31
0.0
  0
LINE
  5
122B1
  8
0
  6
BYBLOCK
 62
     6
 10
326.3214882555196
 20
721.1093382101217
 30
0.0
 11
352.9813072779813
 21
739.7767444569556
 31
0.0
  0
ARC
  5
122B2
  8
0
  6
BYBLOCK
 62
     6
 10
321.7342368075006
 20
717.8973101665555
 30
0.0
 40
37.5456296036012
 50
1.83131466687057
 51
33.16868533312881
  0
SOLID
  5
122B3
  8
0
  6
BYBLOCK
 62
     6
 10
359.4606642056216
 20
719.100353040894
 30
0.0
 11
359.0607152845108
 21
719.0939608188822
 31
0.0
 12
359.2798664111017
 22
717.8973101665555
 32
0.0
 13
359.2798664111017
 23
717.8973101665555
 33
0.0
  0
SOLID
  5
122B4
  8
0
  6
BYBLOCK
 62
     6
 10
352.9966685747715
 20
738.3266598447796
 30
0.0
 11
353.3279539790325
 21
738.5508249199443
 31
0.0
 12
352.489816051408
 22
739.4325985951451
 32
0.0
 13
352.489816051408
 23
739.4325985951451
 33
0.0
  0
TEXT
  5
122B5
  8
0
  6
CONTINUOUS
 62
     3
 10
359.1103669288389
 20
727.7612547697678
 30
0.0
 40
2.5
  1
35°
 50
280.4566663843065
  0
POINT
  5
122B6
  8
DEFPOINTS
  6
BYBLOCK
 62
     0
 10
356.2092386524881
 20
732.7683743557424
 30
0.0
  0
POINT
  5
122B7
  8
DEFPOINTS
  6
BYBLOCK
 62
     0
 10
321.7342368075011
 20
717.8973101665558
 30
0.0
  0
POINT
  5
122B8
  8
DEFPOINTS
  6
BYBLOCK
 62
     0
 10
301.2342368075011
 20
717.8973101665554
 30
0.0
  0
POINT
  5
122B9
  8
DEFPOINTS
  6
BYBLOCK
 62
     0
 10
329.2342368075011
 20
717.8973101665554
 30
0.0
  0
POINT
  5
122BA
  8
DEFPOINTS
  6
BYBLOCK
 62
     0
 10
325.8299970289461
 20
720.7651923483112
 30
0.0
  0
ENDBLK
  8
0
  0
BLOCK
  8
0
  2
*D19
 70
     1
 10
0.0
 20
0.0
 30
0.0
  0
LINE
  5
122BE
  8
0
  6
BYBLOCK
 62
     6
 10
283.1175153173407
 20
727.8123101665528
 30
0.0
 11
283.1175153173407
 21
743.1143778125162
 31
0.0
  0
LINE
  5
122BF
  8
0
  6
BYBLOCK
 62
     6
 10
301.1175153173405
 20
727.8123101665527
 30
0.0
 11
301.1175153173405
 21
743.1143778125162
 31
0.0
  0
LINE
  5
122C0
  8
0
  6
BYBLOCK
 62
     6
 10
284.3175153173407
 20
742.5143778125162
 30
0.0
 11
299.9175153173405
 21
742.5143778125162
 31
0.0
  0
SOLID
  5
122C1
  8
0
  6
BYBLOCK
 62
     6
 10
284.3175153173407
 20
742.7143778125162
 30
0.0
 11
284.3175153173407
 21
742.3143778125161
 31
0.0
 12
283.1175153173407
 22
742.5143778125162
 32
0.0
 13
283.1175153173407
 23
742.5143778125162
 33
0.0
  0
SOLID
  5
122C2
  8
0
  6
BYBLOCK
 62
     6
 10
299.9175153173405
 20
742.7143778125162
 30
0.0
 11
299.9175153173405
 21
742.3143778125161
 31
0.0
 12
301.1175153173405
 22
742.5143778125162
 32
0.0
 13
301.1175153173405
 23
742.5143778125162
 33
0.0
  0
TEXT
  5
122C3
  8
0
  6
CONTINUOUS
 62
     3
 10
290.4508486506739
 20
743.5143778125162
 30
0.0
 40
2.5
  1
18
  0
POINT
  5
122C4
  8
DEFPOINTS
  6
BYBLOCK
 62
     0
 10
283.1175153173407
 20
727.2123101665528
 30
0.0
  0
POINT
  5
122C5
  8
DEFPOINTS
  6
BYBLOCK
 62
     0
 10
301.1175153173405
 20
727.2123101665527
 30
0.0
  0
POINT
  5
122C6
  8
DEFPOINTS
  6
BYBLOCK
 62
     0
 10
301.1175153173405
 20
742.5143778125162
 30
0.0
  0
ENDBLK
  8
0
  0
BLOCK
  8
0
  2
*D20
 70
     1
 10
0.0
 20
0.0
 30
0.0
  0
LINE
  5
122CA
  8
0
  6
BYBLOCK
 62
     6
 10
282.5175153173407
 20
723.8973101665565
 30
0.0
 11
277.8569123576116
 21
723.8973101665565
 31
0.0
  0
LINE
  5
122CB
  8
0
  6
BYBLOCK
 62
     6
 10
282.5175153173413
 20
711.89731016655
 30
0.0
 11
277.8569123576116
 21
711.89731016655
 31
0.0
  0
LINE
  5
122CC
  8
0
  6
BYBLOCK
 62
     6
 10
278.4569123576116
 20
722.6973101665565
 30
0.0
 11
278.4569123576116
 21
713.0973101665501
 31
0.0
  0
SOLID
  5
122CD
  8
0
  6
BYBLOCK
 62
     6
 10
278.2569123576116
 20
722.6973101665565
 30
0.0
 11
278.6569123576116
 21
722.6973101665565
 31
0.0
 12
278.4569123576116
 22
723.8973101665565
 32
0.0
 13
278.4569123576116
 23
723.8973101665565
 33
0.0
  0
SOLID
  5
122CE
  8
0
  6
BYBLOCK
 62
     6
 10
278.2569123576116
 20
713.0973101665501
 30
0.0
 11
278.6569123576116
 21
713.0973101665501
 31
0.0
 12
278.4569123576116
 22
711.89731016655
 32
0.0
 13
278.4569123576116
 23
711.89731016655
 33
0.0
  0
TEXT
  5
122CF
  8
0
  6
CONTINUOUS
 62
     3
 10
277.4569123576116
 20
714.9806434998866
 30
0.0
 40
2.5
  1
\U+220512
 50
90.0
  0
POINT
  5
122D0
  8
DEFPOINTS
  6
BYBLOCK
 62
     0
 10
283.1175153173407
 20
723.8973101665565
 30
0.0
  0
POINT
  5
122D1
  8
DEFPOINTS
  6
BYBLOCK
 62
     0
 10
283.1175153173414
 20
711.89731016655
 30
0.0
  0
POINT
  5
122D2
  8
DEFPOINTS
  6
BYBLOCK
 62
     0
 10
278.4569123576116
 20
711.89731016655
 30
0.0
  0
ENDBLK
  8
0
  0
BLOCK
  8
0
  2
*D21
 70
     1
 10
0.0
 20
0.0
 30
0.0
  0
LINE
  5
122D6
  8
0
  6
BYBLOCK
 62
     6
 10
381.7175153173405
 20
713.8973101665524
 30
0.0
 11
388.2547138598953
 21
713.8973101665524
 31
0.0
  0
LINE
  5
122D7
  8
0
  6
BYBLOCK
 62
     6
 10
381.7175153173408
 20
721.8973101665526
 30
0.0
 11
388.2547138598953
 21
721.8973101665526
 31
0.0
  0
LINE
  5
122D8
  8
0
  6
BYBLOCK
 62
     6
 10
387.6547138598953
 20
715.0973101665525
 30
0.0
 11
387.6547138598953
 21
720.6973101665526
 31
0.0
  0
LINE
  5
122D9
  8
0
  6
BYBLOCK
 62
     6
 10
387.6547138598953
 20
721.8973101665526
 30
0.0
 11
387.6547138598953
 21
729.7478691973197
 31
0.0
  0
SOLID
  5
122DA
  8
0
  6
BYBLOCK
 62
     6
 10
387.4547138598953
 20
715.0973101665525
 30
0.0
 11
387.8547138598953
 21
715.0973101665525
 31
0.0
 12
387.6547138598953
 22
713.8973101665524
 32
0.0
 13
387.6547138598953
 23
713.8973101665524
 33
0.0
  0
SOLID
  5
122DB
  8
0
  6
BYBLOCK
 62
     6
 10
387.4547138598953
 20
720.6973101665526
 30
0.0
 11
387.8547138598953
 21
720.6973101665526
 31
0.0
 12
387.6547138598953
 22
721.8973101665526
 32
0.0
 13
387.6547138598953
 23
721.8973101665526
 33
0.0
  0
TEXT
  5
122DC
  8
0
  6
CONTINUOUS
 62
     3
 10
386.6547138598953
 20
724.5812025306532
 30
0.0
 40
2.5
  1
\U+22058
 50
90.0
  0
POINT
  5
122DD
  8
DEFPOINTS
  6
BYBLOCK
 62
     0
 10
381.1175153173405
 20
713.8973101665524
 30
0.0
  0
POINT
  5
122DE
  8
DEFPOINTS
  6
BYBLOCK
 62
     0
 10
381.1175153173407
 20
721.8973101665526
 30
0.0
  0
POINT
  5
122DF
  8
DEFPOINTS
  6
BYBLOCK
 62
     0
 10
387.6547138598953
 20
721.8973101665526
 30
0.0
  0
ENDBLK
  8
0
  0
BLOCK
  8
0
  2
*D22
 70
     1
 10
0.0
 20
0.0
 30
0.0
  0
LINE
  5
122E3
  8
0
  6
BYBLOCK
 62
     6
 10
381.7175153173408
 20
722.897310166554
 30
0.0
 11
391.9048537871669
 21
722.897310166554
 31
0.0
  0
LINE
  5
122E4
  8
0
  6
BYBLOCK
 62
     6
 10
381.7175153173405
 20
712.8973101665533
 30
0.0
 11
391.9048537871669
 21
712.8973101665533
 31
0.0
  0
LINE
  5
122E5
  8
0
  6
BYBLOCK
 62
     6
 10
391.3048537871668
 20
714.0973101665534
 30
0.0
 11
391.3048537871668
 21
721.697310166554
 31
0.0
  0
LINE
  5
122E6
  8
0
  6
BYBLOCK
 62
     6
 10
391.3048537871668
 20
722.897310166554
 30
0.0
 11
391.3048537871668
 21
731.5139768332206
 31
0.0
  0
SOLID
  5
122E7
  8
0
  6
BYBLOCK
 62
     6
 10
391.1048537871669
 20
714.0973101665534
 30
0.0
 11
391.5048537871668
 21
714.0973101665534
 31
0.0
 12
391.3048537871668
 22
712.8973101665533
 32
0.0
 13
391.3048537871668
 23
712.8973101665533
 33
0.0
  0
SOLID
  5
122E8
  8
0
  6
BYBLOCK
 62
     6
 10
391.1048537871669
 20
721.697310166554
 30
0.0
 11
391.5048537871668
 21
721.697310166554
 31
0.0
 12
391.3048537871668
 22
722.897310166554
 32
0.0
 13
391.3048537871668
 23
722.897310166554
 33
0.0
  0
TEXT
  5
122E9
  8
0
  6
CONTINUOUS
 62
     3
 10
390.3048537871668
 20
725.097310166554
 30
0.0
 40
2.5
  1
\U+220510
 50
90.0
  0
POINT
  5
122EA
  8
DEFPOINTS
  6
BYBLOCK
 62
     0
 10
381.1175153173407
 20
722.897310166554
 30
0.0
  0
POINT
  5
122EB
  8
DEFPOINTS
  6
BYBLOCK
 62
     0
 10
381.1175153173405
 20
712.8973101665533
 30
0.0
  0
POINT
  5
122EC
  8
DEFPOINTS
  6
BYBLOCK
 62
     0
 10
391.3048537871668
 20
712.8973101665533
 30
0.0
  0
ENDBLK
  8
0
  0
BLOCK
  8
0
  2
*D23
 70
     1
 10
0.0
 20
0.0
 30
0.0
  0
LINE
  5
122F0
  8
0
  6
BYBLOCK
 62
     6
 10
301.1175153173409
 20
734.4973101665529
 30
0.0
 11
301.1175153173409
 21
743.0125455048328
 31
0.0
  0
LINE
  5
122F1
  8
0
  6
BYBLOCK
 62
     6
 10
381.1175153173407
 20
723.497310166554
 30
0.0
 11
381.1175153173407
 21
743.0125455048328
 31
0.0
  0
LINE
  5
122F2
  8
0
  6
BYBLOCK
 62
     6
 10
302.3175153173409
 20
742.4125455048328
 30
0.0
 11
379.9175153173408
 21
742.4125455048328
 31
0.0
  0
SOLID
  5
122F3
  8
0
  6
BYBLOCK
 62
     6
 10
302.3175153173409
 20
742.6125455048328
 30
0.0
 11
302.3175153173409
 21
742.2125455048327
 31
0.0
 12
301.1175153173409
 22
742.4125455048328
 32
0.0
 13
301.1175153173409
 23
742.4125455048328
 33
0.0
  0
SOLID
  5
122F4
  8
0
  6
BYBLOCK
 62
     6
 10
379.9175153173408
 20
742.6125455048328
 30
0.0
 11
379.9175153173408
 21
742.2125455048327
 31
0.0
 12
381.1175153173407
 22
742.4125455048328
 32
0.0
 13
381.1175153173407
 23
742.4125455048328
 33
0.0
  0
TEXT
  5
122F5
  8
0
  6
CONTINUOUS
 62
     3
 10
339.2425153173408
 20
743.4125455048328
 30
0.0
 40
2.5
  1
80
  0
POINT
  5
122F6
  8
DEFPOINTS
  6
BYBLOCK
 62
     0
 10
301.1175153173409
 20
733.8973101665529
 30
0.0
  0
POINT
  5
122F7
  8
DEFPOINTS
  6
BYBLOCK
 62
     0
 10
381.1175153173407
 20
722.897310166554
 30
0.0
  0
POINT
  5
122F8
  8
DEFPOINTS
  6
BYBLOCK
 62
     0
 10
381.1175153173407
 20
742.4125455048328
 30
0.0
  0
ENDBLK
  8
0
  0
BLOCK
  8
0
  2
*D24
 70
     1
 10
0.0
 20
0.0
 30
0.0
  0
LINE
  5
122FC
  8
0
  6
BYBLOCK
 62
     6
 10
560.0081251078672
 20
711.5068377384307
 30
0.0
 11
560.0081251078672
 21
686.6406790603598
 31
0.0
  0
LINE
  5
122FD
  8
0
  6
BYBLOCK
 62
     6
 10
614.008125107867
 20
712.297310166553
 30
0.0
 11
614.008125107867
 21
686.6406790603598
 31
0.0
  0
LINE
  5
122FE
  8
0
  6
BYBLOCK
 62
     6
 10
561.2081251078672
 20
687.2406790603599
 30
0.0
 11
612.808125107867
 21
687.2406790603599
 31
0.0
  0
SOLID
  5
122FF
  8
0
  6
BYBLOCK
 62
     6
 10
561.2081251078672
 20
687.4406790603599
 30
0.0
 11
561.2081251078672
 21
687.0406790603598
 31
0.0
 12
560.0081251078672
 22
687.2406790603599
 32
0.0
 13
560.0081251078672
 23
687.2406790603599
 33
0.0
  0
SOLID
  5
12300
  8
0
  6
BYBLOCK
 62
     6
 10
612.808125107867
 20
687.4406790603599
 30
0.0
 11
612.808125107867
 21
687.0406790603598
 31
0.0
 12
614.008125107867
 22
687.2406790603599
 32
0.0
 13
614.008125107867
 23
687.2406790603599
 33
0.0
  0
TEXT
  5
12301
  8
0
  6
CONTINUOUS
 62
     3
 10
584.9247917745337
 20
688.2406790603599
 30
0.0
 40
2.5
  1
54
  0
POINT
  5
12302
  8
DEFPOINTS
  6
BYBLOCK
 62
     0
 10
560.0081251078672
 20
712.1068377384307
 30
0.0
  0
POINT
  5
12303
  8
DEFPOINTS
  6
BYBLOCK
 62
     0
 10
614.008125107867
 20
712.897310166553
 30
0.0
  0
POINT
  5
12304
  8
DEFPOINTS
  6
BYBLOCK
 62
     0
 10
614.008125107867
 20
687.2406790603599
 30
0.0
  0
ENDBLK
  8
0
  0
BLOCK
  8
0
  2
*D25
 70
     1
 10
0.0
 20
0.0
 30
0.0
  0
LINE
  5
12308
  8
0
  6
BYBLOCK
 62
     6
 10
301.1175153173405
 20
734.497310166552
 30
0.0
 11
301.1175153173405
 21
739.3193699311223
 31
0.0
  0
LINE
  5
12309
  8
0
  6
BYBLOCK
 62
     6
 10
322.1175153173405
 20
729.5227684311968
 30
0.0
 11
322.1175153173405
 21
739.3193699311223
 31
0.0
  0
LINE
  5
1230A
  8
0
  6
BYBLOCK
 62
     6
 10
302.3175153173405
 20
738.7193699311223
 30
0.0
 11
320.9175153173405
 21
738.7193699311223
 31
0.0
  0
SOLID
  5
1230B
  8
0
  6
BYBLOCK
 62
     6
 10
302.3175153173405
 20
738.9193699311223
 30
0.0
 11
302.3175153173405
 21
738.5193699311222
 31
0.0
 12
301.1175153173405
 22
738.7193699311223
 32
0.0
 13
301.1175153173405
 23
738.7193699311223
 33
0.0
  0
SOLID
  5
1230C
  8
0
  6
BYBLOCK
 62
     6
 10
320.9175153173405
 20
738.9193699311223
 30
0.0
 11
320.9175153173405
 21
738.5193699311222
 31
0.0
 12
322.1175153173405
 22
738.7193699311223
 32
0.0
 13
322.1175153173405
 23
738.7193699311223
 33
0.0
  0
TEXT
  5
1230D
  8
0
  6
CONTINUOUS
 62
     3
 10
309.9508486506738
 20
739.7193699311223
 30
0.0
 40
2.5
  1
21
  0
POINT
  5
1230E
  8
DEFPOINTS
  6
BYBLOCK
 62
     0
 10
301.1175153173405
 20
733.897310166552
 30
0.0
  0
POINT
  5
1230F
  8
DEFPOINTS
  6
BYBLOCK
 62
     0
 10
322.1175153173405
 20
728.9227684311968
 30
0.0
  0
POINT
  5
12310
  8
DEFPOINTS
  6
BYBLOCK
 62
     0
 10
322.1175153173405
 20
738.7193699311223
 30
0.0
  0
ENDBLK
  8
0
  0
BLOCK
  8
0
  2
A$C58A779DF
 70
     0
 10
0.0
 20
0.0
 30
0.0
  0
TEXT
  5
12314
  8
圖層4
  6
CONTINUOUS
 62
     3
 10
0.0000008576536867
 20
1.000000441372413
 30
0.0
 40
1.8
  1
M24x2.0P
  0
INSERT
  5
12315
  8
圖層4
 62
     6
  2
*X35
 10
0.0
 20
0.0
 30
0.0
  0
ENDBLK
  8
0
  0
BLOCK
  8
0
  2
A$C2B65124E
 70
     0
 10
0.0
 20
0.0
 30
0.0
  0
LINE
  5
12319
  8
文字
 62
     3
 39
1.919999808
 10
190.0641169575924
 20
21.61622462415801
 30
0.0
 11
192.6233824852064
 21
22.25604100606108
 31
0.0
  0
LINE
  5
1231A
  8
2
  6
HIDDEN
 10
31.59927215310131
 20
94.16589209836616
 30
0.0
 11
49.59927215310097
 21
94.16589209836468
 31
0.0
  0
LINE
  5
1231B
  8
2
  6
HIDDEN
 10
31.5992721531012
 20
82.16589209835968
 30
0.0
 11
49.59927215310097
 21
82.1658920983607
 31
0.0
  0
DIMENSION
  5
1231C
  8
圖層4
  2
*D19
 10
49.59927215310108
 20
112.7829597443258
 30
0.0
 11
40.5992721531012
 21
115.0329597443258
 31
0.0
 12
-251.5182431642394
 22
-629.7314180681904
 32
0.0
 70
     0
 13
31.59927215310131
 23
97.48089209836246
 33
0.0
 14
49.59927215310108
 24
97.48089209836235
 34
0.0
  0
LINE
  5
1231D
  8
2
  6
BYBLOCK
 10
31.5992721531012
 20
98.93089209836239
 30
0.0
 11
47.5992721531012
 21
98.93089209836398
 31
0.0
  0
LINE
  5
1231E
  8
2
  6
BYBLOCK
 10
32.19927215310156
 20
100.0658920983637
 30
0.0
 11
47.59927215310165
 21
100.0658920983643
 31
0.0
  0
LINE
  5
1231F
  8
2
  6
BYBLOCK
 10
32.19927215310315
 20
76.26589209836027
 30
0.0
 11
47.59927215310324
 21
76.26589209836163
 31
0.0
  0
LINE
  5
12320
  8
2
  6
BYBLOCK
 10
31.59927215310256
 20
77.40089209836162
 30
0.0
 11
47.59927215310256
 21
77.40089209836196
 31
0.0
  0
INSERT
  5
12321
  8
圖層4
  2
A$C58A779DF
 10
19.35522512374143
 20
67.26215785381191
 30
0.0
  0
LINE
  5
12322
  8
CENTER
 10
31.59927215310154
 20
88.16589209836286
 30
0.0
 11
129.5992721531012
 21
88.16589209836468
 31
0.0
  0
LINE
  5
12323
  8
-
 62
     9
 10
8.999998858332333
 20
4.199999360438255
 30
0.0
 11
222.7499774833323
 21
4.199999360438255
 31
0.0
  0
LINE
  5
12324
  8
-
 62
     9
 10
8.999998858332333
 20
157.4999840304381
 30
0.0
 11
222.7499774833323
 21
157.4999840304381
 31
0.0
  0
TEXT
  5
12325
  8
文字
  6
CONTINUOUS
 62
     3
 10
17.5704546436492
 20
7.011067129683904
 30
0.0
 40
2.249999775
  1
ボイン卜・フイツ卜・ノズル
  0
LINE
  5
12326
  8
-
 62
     9
 10
8.999998858332333
 20
4.199999360438255
 30
0.0
 11
8.999998858332333
 21
157.4999840304381
 31
0.0
  0
TEXT
  5
12327
  8
文字
  6
CONTINUOUS
 62
     3
 10
11.64702916704445
 20
10.7655509220653
 30
0.0
 40
2.249999775
  1
表 面 処 理 :
  0
TEXT
  5
12328
  8
文字
  6
CONTINUOUS
 62
     3
 10
10.16117072429492
 20
16.53612433320194
 30
0.0
 40
2.249999775
  1
註:
  0
TEXT
  5
12329
  8
文字
  6
CONTINUOUS
 62
     3
 10
30.26065148495143
 20
10.66600598169185
 30
0.0
 40
2.249999775
  1
黒 染
  0
DIMENSION
  5
1232A
  8
圖層4
  2
*D20
 10
26.93866919337222
 20
82.16589209835968
 30
0.0
 11
24.68866919337222
 21
88.16589209836297
 31
0.0
 12
-251.5182431642394
 22
-629.7314180681904
 32
0.0
 70
     0
  1
%%c<>
 13
31.59927215310131
 23
94.16589209836616
 33
0.0
 14
31.59927215310199
 24
82.16589209835968
 34
0.0
 50
90.0
  0
LINE
  5
1232B
  8
2
  6
BYBLOCK
 10
31.59927215310131
 20
98.01589209836322
 30
0.0
 11
31.59927215310131
 21
88.16589209836377
 31
0.0
  0
LINE
  5
1232C
  8
2
  6
BYBLOCK
 10
31.59927215310108
 20
78.31589209836261
 30
0.0
 11
31.59927215310131
 21
88.16589209836206
 31
0.0
  0
LINE
  5
1232D
  8
2
  6
BYBLOCK
 10
31.5992721531029
 20
78.71589209836213
 30
0.0
 11
31.59927215310177
 21
76.86589209836177
 31
0.0
  0
LINE
  5
1232E
  8
2
  6
BYBLOCK
 10
31.59927215310267
 20
76.86589209836131
 30
0.0
 11
32.19927215310315
 21
76.26589209836072
 31
0.0
  0
LINE
  5
1232F
  8
2
  6
BYBLOCK
 10
31.59927215310177
 20
76.86589209836177
 30
0.0
 11
32.19927215310315
 21
76.26589209836118
 31
0.0
  0
LINE
  5
12330
  8
2
  6
BYBLOCK
 10
31.59927215310029
 20
99.46589209836225
 30
0.0
 11
32.19927215310156
 21
100.0658920983628
 31
0.0
  0
LINE
  5
12331
  8
2
  6
BYBLOCK
 10
31.5992721531012
 20
99.4658920983627
 30
0.0
 11
32.19927215310156
 21
100.0658920983633
 31
0.0
  0
LINE
  5
12332
  8
2
  6
BYBLOCK
 10
31.59927215310165
 20
97.61589209836188
 30
0.0
 11
31.59927215310029
 21
99.46589209836225
 31
0.0
  0
LINE
  5
12333
  8
-
 62
     9
 10
1.499999608332246
 20
157.4999840304381
 30
0.0
 11
-0.0000002416679763
 21
157.4999840304381
 31
0.0
  0
LINE
  5
12334
  8
-
 62
     9
 10
-0.0000002416679763
 20
157.4999840304381
 30
0.0
 11
-0.0000002416679763
 21
155.9999841804382
 31
0.0
  0
LINE
  5
12335
  8
-
 62
     9
 10
-0.0000002416679763
 20
155.9999841804382
 30
0.0
 11
-0.0000002416679763
 21
157.4999840304381
 31
0.0
  0
CIRCLE
  5
12336
  8
2
 62
     3
 10
181.3571561795692
 20
88.1658920983632
 30
0.0
 40
14.95000000000039
  0
CIRCLE
  5
12337
  8
2
 62
     3
 10
181.3571561795692
 20
88.1658920983632
 30
0.0
 40
14.95000000000039
  0
CIRCLE
  5
12338
  8
2
 10
181.3571561795692
 20
88.1658920983632
 30
0.0
 40
11.02545826464302
  0
POLYLINE
  5
12339
  8
2
 66
     1
 10
0.0
 20
0.0
 30
0.0
 70
     1
  0
VERTEX
  5
1277E
  8
2
 10
172.1195518725353
 20
104.1658920983631
 30
0.0
  0
VERTEX
  5
1277F
  8
2
 10
162.8819475655013
 20
88.16589209836297
 30
0.0
  0
VERTEX
  5
12780
  8
2
 10
172.1195518725361
 20
72.1658920983632
 30
0.0
  0
VERTEX
  5
12781
  8
2
 10
190.5947604866038
 20
72.16589209836366
 30
0.0
  0
VERTEX
  5
12782
  8
2
 10
199.8323647936371
 20
88.16589209836377
 30
0.0
  0
VERTEX
  5
12783
  8
2
 10
190.5947604866033
 20
104.1658920983637
 30
0.0
  0
SEQEND
  5
12792
  8
2
  0
LINE
  5
1233A
  8
CENTER
 10
162.8819475655013
 20
88.16589209836297
 30
0.0
 11
199.8323647936371
 21
88.16589209836377
 31
0.0
  0
CIRCLE
  5
1233B
  8
2
 10
181.3571561795691
 20
88.16589209836343
 30
0.0
 40
16.00000000000003
  0
LINE
  5
1233C
  8
-
 62
     9
 10
222.7499774833323
 20
23.39999744043837
 30
0.0
 11
108.6699888913323
 21
23.39999744043837
 31
0.0
  0
TEXT
  5
1233D
  8
0
  6
CONTINUOUS
 62
     3
 10
173.5624292241768
 20
6.784091778841088
 30
0.0
 40
2.879999712
  1
日機株式会社
 41
1.5
  0
LINE
  5
1233E
  8
-
 62
     9
 10
222.7499774833323
 20
13.79999840043865
 30
0.0
 11
172.1712434599074
 21
13.79999840043865
 31
0.0
  0
LINE
  5
1233F
  8
-
 62
     9
 10
205.4352401335076
 20
18.59999792043834
 30
0.0
 11
158.6583214741062
 21
18.59999792043834
 31
0.0
  0
LINE
  5
12340
  8
-
 62
     9
 10
172.1712434599074
 20
23.39999744043837
 30
0.0
 11
172.1712434599074
 21
4.199999360438255
 31
0.0
  0
TEXT
  5
12341
  8
文字
  6
CONTINUOUS
 62
     3
 10
160.4059576406018
 20
4.822974673154201
 30
0.0
 40
1.013759898624
  1
1000-1500
  0
LINE
  5
12342
  8
-
 62
     8
 10
167.9484553393448
 20
4.199999360438255
 30
0.0
 11
167.9484553393448
 21
20.99999768043836
 31
0.0
  0
TEXT
  5
12343
  8
文字
  6
CONTINUOUS
 62
     3
 10
151.8276980643448
 20
5.346725858395663
 30
0.0
 40
1.79999982
  1
日 付
  0
LINE
  5
12344
  8
-
 62
     9
 10
158.6583214741062
 20
4.199999360438255
 30
0.0
 11
158.6583214741062
 21
23.39999744043837
 31
0.0
  0
TEXT
  5
12345
  8
文字
  6
CONTINUOUS
 62
     3
 10
168.4019410488435
 20
4.822974673154201
 30
0.0
 40
1.013759898624
  1
±0.5
  0
TEXT
  5
12346
  8
文字
  6
CONTINUOUS
 62
     3
 10
143.7429873730315
 20
5.346725858395663
 30
0.0
 40
1.79999982
  1
担  当
  0
LINE
  5
12347
  8
-
 10
142.267813457842
 20
4.199999360438255
 30
0.0
 11
142.2678134578424
 21
23.39999744043837
 31
0.0
  0
LINE
  5
12348
  8
-
 10
150.5657670422358
 20
4.199999360438255
 30
0.0
 11
150.5657670422358
 21
23.39999744043837
 31
0.0
  0
LINE
  5
12349
  8
-
 10
115.1431716542546
 20
4.199999360438255
 30
0.0
 11
115.1431716542542
 21
23.39999744043837
 31
0.0
  0
TEXT
  5
1234A
  8
文字
  6
CONTINUOUS
 62
     3
 10
118.5943365234987
 20
5.300482826352841
 30
0.0
 40
2.39999976
  1
更  改  内  容
  0
LINE
  5
1234B
  8
0
 62
     3
 10
111.920647801311
 20
7.788495701577062
 30
0.0
 11
113.1874842374792
 21
5.254822829239401
 31
0.0
  0
LINE
  5
1234C
  8
0
 62
     3
 10
111.920647801311
 20
7.788495701577062
 30
0.0
 11
110.6538113651413
 21
5.254822829239401
 31
0.0
  0
LINE
  5
1234D
  8
-
 62
     9
 10
108.6699888913323
 20
4.199999360438255
 30
0.0
 11
108.6699888913323
 21
23.39999744043837
 31
0.0
  0
LINE
  5
1234E
  8
-
 62
     9
 10
108.6699888913323
 20
23.39999744043837
 30
0.0
 11
108.6699888913323
 21
4.199999360438255
 31
0.0
  0
LINE
  5
1234F
  8
0
 62
     3
 10
110.6538113651413
 20
5.254822829239401
 30
0.0
 11
113.1874842374792
 21
5.254822829239401
 31
0.0
  0
DIMENSION
  5
12350
  8
圖層4
  2
*D24
 10
129.599272153101
 20
57.50926099216952
 30
0.0
 11
102.599272153101
 21
59.75926099216952
 31
0.0
 12
-484.4088529547661
 22
-629.7314180681904
 32
0.0
 70
     0
  1
54
 13
75.59927215310108
 23
82.37541967024038
 33
0.0
 14
129.599272153101
 24
83.16589209836263
 34
0.0
  0
LINE
  5
12351
  8
2
  6
BYBLOCK
 10
75.59927215310142
 20
93.16589209836332
 30
0.0
 11
129.5992721531013
 21
93.16589209836366
 31
0.0
  0
LINE
  5
12352
  8
2
  6
BYBLOCK
 10
75.59927215310108
 20
83.16589209836343
 30
0.0
 11
129.599272153101
 21
83.16589209836263
 31
0.0
  0
LINE
  5
12353
  8
2
  6
HIDDEN
 10
75.97048706858368
 20
92.16589209836229
 30
0.0
 11
129.5992721531013
 21
92.1658920983624
 31
0.0
  0
LINE
  5
12354
  8
2
  6
HIDDEN
 10
75.97048706858448
 20
84.16589209836229
 30
0.0
 11
129.599272153101
 21
84.16589209836206
 31
0.0
  0
DIMENSION
  5
12355
  8
圖層4
  2
*D23
 10
129.5992721531014
 20
112.6811274366424
 30
0.0
 11
89.59927215310142
 21
114.9311274366424
 31
0.0
 12
-251.5182431642394
 22
-629.7314180681904
 32
0.0
 70
     0
 13
49.59927215310154
 23
104.1658920983625
 33
0.0
 14
129.5992721531014
 24
93.16589209836366
 34
0.0
  0
LINE
  5
12356
  8
-
 62
     9
 10
158.6583214741062
 20
18.59999792043834
 30
0.0
 11
108.6699888913323
 21
18.59999792043834
 31
0.0
  0
LINE
  5
12357
  8
-
 62
     9
 10
158.6583214741062
 20
13.79999840043865
 30
0.0
 11
108.6699888913323
 21
13.79999840043865
 31
0.0
  0
LINE
  5
12358
  8
-
 62
     9
 10
158.6583214741062
 20
8.999998880438284
 30
0.0
 11
108.6699888913323
 21
8.999998880438284
 31
0.0
  0
LINE
  5
12359
  8
0
  6
BYBLOCK
 62
     6
 10
74.80324509128047
 20
84.95386405479803
 30
0.0
 11
101.4637278807968
 21
66.28599303327064
 31
0.0
  0
LINE
  5
1235A
  8
0
  6
BYBLOCK
 62
     6
 10
78.31599364326178
 20
88.1658920983648
 30
0.0
 11
108.3624335568144
 21
88.165892098369
 31
0.0
  0
DIMENSION
  5
1235B
  8
圖層4
 62
     3
  2
*D18
 10
74.3117538647067
 20
91.03377428012084
 30
0.0
 11
107.138082463466
 21
94.98011688800284
 31
0.0
 12
-251.5182431642394
 22
-629.7314180681904
 32
0.0
 70
   130
 13
49.71599364326175
 23
88.16589209836513
 33
0.0
 14
77.71599364326175
 24
88.16589209836502
 34
0.0
 15
70.21599364326175
 25
88.16589209836548
 35
0.0
 16
104.6909954882486
 26
103.036956287552
 36
0.0
  0
LINE
  5
1235C
  8
2
  6
BYBLOCK
 10
49.5992721531012
 20
72.16589209836286
 30
0.0
 11
64.59927215310074
 21
72.16589209836229
 31
0.0
  0
LINE
  5
1235D
  8
2
  6
BYBLOCK
 10
49.59927215310154
 20
104.1658920983625
 30
0.0
 11
64.59927215310108
 21
104.1658920983626
 31
0.0
  0
LINE
  5
1235E
  8
圖層4
 62
     0
 10
49.59927215310097
 20
88.1658920983632
 30
0.0
 11
62.95749588051933
 21
88.15899069810655
 31
0.0
  0
DIMENSION
  5
1235F
  8
圖層4
  2
*D25
 10
70.59927215310108
 20
108.9879518629319
 30
0.0
 11
60.09927215310108
 21
111.2379518629319
 31
0.0
 12
-251.5182431642394
 22
-629.7314180681904
 32
0.0
 70
     0
 13
49.59927215310108
 23
104.1658920983616
 33
0.0
 14
70.59927215310108
 24
99.19135036300645
 34
0.0
  0
LINE
  5
12360
  8
2
  6
BYBLOCK
 10
49.59927215310108
 20
104.1658920983616
 30
0.0
 11
49.59927215310097
 21
88.1658920983632
 31
0.0
  0
LINE
  5
12361
  8
2
  6
BYBLOCK
 10
49.59927215310074
 20
72.16589209836377
 30
0.0
 11
49.5992721531012
 21
88.1658920983632
 31
0.0
  0
ARC
  5
12362
  8
2
  6
BYBLOCK
 10
47.59927215310267
 20
75.40089209836344
 30
0.0
 40
2.0
 50
0.0000000000024739
 51
90.00000000000318
  0
LINE
  5
12363
  8
2
  6
BYBLOCK
 10
47.59927215310302
 20
77.40089209836344
 30
0.0
 11
47.59927215310324
 21
76.26589209836163
 31
0.0
  0
POINT
  5
12364
  8
DEFPOINTS
  6
BYBLOCK
 62
     0
 10
49.71599364326175
 20
88.16589209836116
 30
0.0
  0
LINE
  5
12365
  8
2
  6
BYBLOCK
 10
47.59927215310165
 20
98.9308920983625
 30
0.0
 11
47.59927215310165
 21
100.0658920983643
 31
0.0
  0
ARC
  5
12366
  8
2
  6
BYBLOCK
 10
47.59927215310097
 20
100.9308920983625
 30
0.0
 40
2.0
 50
270.0000000000041
 51
0.0000000000047637
  0
ARC
  5
12367
  8
2
  6
BYBLOCK
 10
64.29615625264432
 20
88.16589209836229
 30
0.0
 40
12.7
 50
27.12560632357168
 51
60.24393927559568
  0
LINE
  5
12368
  8
2
  6
BYBLOCK
 10
70.59927215310097
 20
102.6658920983633
 30
0.0
 11
70.59927215310131
 21
88.1658920983632
 31
0.0
  0
LINE
  5
12369
  8
2
  6
BYBLOCK
 10
65.59927215310108
 20
103.5658920983628
 30
0.0
 11
65.59927215310074
 21
72.76589209836209
 31
0.0
  0
ARC
  5
1236A
  8
2
 10
53.54766040919515
 20
95.72438035220318
 30
0.0
 40
12.06530014564892
 50
321.252238972444
 51
44.39909302640489
  0
LINE
  5
1236B
  8
2
  6
BYBLOCK
 10
70.59927215310074
 20
73.66589209836343
 30
0.0
 11
65.59927215310074
 21
72.76589209836209
 31
0.0
  0
ARC
  5
1236C
  8
2
 10
53.58086930185459
 20
80.60472988059712
 30
0.0
 40
12.03242975259145
 50
315.4652983229483
 51
38.80544841001509
  0
LINE
  5
1236D
  8
2
  6
BYBLOCK
 10
65.59927215310074
 20
72.76589209836209
 30
0.0
 11
64.59927215310074
 21
72.16589209836252
 31
0.0
  0
ARC
  5
1236E
  8
2
  6
BYBLOCK
 10
64.29615625264432
 20
88.16589209836229
 30
0.0
 40
12.7
 50
299.756060724403
 51
332.8743936764249
  0
LINE
  5
1236F
  8
2
  6
BYBLOCK
 10
70.59927215310063
 20
73.66589209836354
 30
0.0
 11
70.59927215310131
 21
88.16589209836161
 31
0.0
  0
POINT
  5
12370
  8
DEFPOINTS
  6
BYBLOCK
 62
     0
 10
70.21599364326175
 20
88.16589209836354
 30
0.0
  0
LINE
  5
12371
  8
2
  6
BYBLOCK
 10
75.59927215310108
 20
82.37541967024038
 30
0.0
 11
75.59927215310142
 21
93.95636452648364
 31
0.0
  0
POINT
  5
12372
  8
DEFPOINTS
  6
BYBLOCK
 62
     0
 10
77.71599364326175
 20
88.1658920983648
 30
0.0
  0
POINT
  5
12373
  8
DEFPOINTS
  6
BYBLOCK
 62
     0
 10
74.31175386470704
 20
85.29800991660852
 30
0.0
  0
LINE
  5
12374
  8
2
  6
BYBLOCK
 10
70.5992721531012
 20
102.6658920983634
 30
0.0
 11
65.59927215310108
 21
103.5658920983628
 31
0.0
  0
LINE
  5
12375
  8
2
  6
BYBLOCK
 10
65.59927215310108
 20
103.5658920983628
 30
0.0
 11
64.59927215310108
 21
104.1658920983624
 31
0.0
  0
TEXT
  5
12376
  8
0
  6
CONTINUOUS
 62
     3
 10
111.4967284769161
 20
20.07485754619361
 30
0.0
 40
1.679999832
  1
3
 41
0.5
  0
LINE
  5
12377
  8
0
 62
     3
 10
111.8553637687363
 20
22.37469918192608
 30
0.0
 11
113.1222002049054
 21
19.84102630958807
 31
0.0
  0
LINE
  5
12378
  8
0
 62
     3
 10
111.8553637687363
 20
22.37469918192608
 30
0.0
 11
110.5885273325681
 21
19.84102630958807
 31
0.0
  0
LINE
  5
12379
  8
0
 62
     3
 10
110.5885273325681
 20
19.84102630958807
 30
0.0
 11
113.1222002049054
 21
19.84102630958807
 31
0.0
  0
LINE
  5
1237A
  8
0
 62
     3
 10
110.7026489539159
 20
15.03597163025461
 30
0.0
 11
113.2363218262536
 21
15.03597163025461
 31
0.0
  0
LINE
  5
1237B
  8
0
 62
     3
 10
111.969485390085
 20
17.56964450259227
 30
0.0
 11
110.7026489539159
 21
15.03597163025461
 31
0.0
  0
LINE
  5
1237C
  8
0
 62
     3
 10
111.969485390085
 20
17.56964450259227
 30
0.0
 11
113.2363218262536
 21
15.03597163025461
 31
0.0
  0
TEXT
  5
1237D
  8
0
  6
CONTINUOUS
 62
     3
 10
111.7042211277541
 20
15.21278624030506
 30
0.0
 40
1.679999832
  1
2
 41
0.5
  0
LINE
  5
1237E
  8
0
 62
     3
 10
110.7672417837592
 20
10.23007542871596
 30
0.0
 11
113.3009146560971
 21
10.23007542871596
 31
0.0
  0
TEXT
  5
1237F
  8
0
  6
CONTINUOUS
 62
     3
 10
111.9088728498436
 20
10.50959541357488
 30
0.0
 40
1.679999832
  1
1
 41
0.5
  0
LINE
  5
12380
  8
0
 62
     3
 10
112.0340782199279
 20
12.76374830105362
 30
0.0
 11
113.3009146560971
 21
10.23007542871596
 31
0.0
  0
LINE
  5
12381
  8
0
 62
     3
 10
112.0340782199279
 20
12.76374830105362
 30
0.0
 11
110.7672417837592
 21
10.23007542871596
 31
0.0
  0
TEXT
  5
12382
  8
0
  6
CONTINUOUS
 62
     3
 10
106.7632505986736
 20
78.07463355122319
 30
0.0
 40
2.0
  1
35°
 50
252.5000000000063
  0
ARC
  5
12383
  8
0
  6
BYBLOCK
 62
     6
 10
70.21599364326141
 20
88.16589209836388
 30
0.0
 40
37.54643991355302
 50
326.8312751409205
 51
358.1687248590907
  0
SOLID
  5
12384
  8
0
  6
BYBLOCK
 62
     6
 10
101.8103748859972
 20
67.51191228118398
 30
0.0
 11
101.4790895590572
 21
67.73607747061862
 31
0.0
 12
100.9722366542234
 22
66.63013889508125
 32
0.0
 13
100.9722366542234
 23
66.63013889508125
 33
0.0
  0
POINT
  5
12385
  8
DEFPOINTS
  6
BYBLOCK
 62
     0
 10
104.6917395278994
 20
73.29450696180345
 30
0.0
  0
SOLID
  5
12386
  8
0
  6
BYBLOCK
 62
     6
 10
107.5432828429831
 20
86.96924137045062
 30
0.0
 11
107.9432317662989
 21
86.96284928639284
 31
0.0
 12
107.7624335568144
 22
88.16589209836889
 32
0.0
 13
107.7624335568144
 23
88.16589209836889
 33
0.0
  0
LINE
  5
12387
  8
-
 62
     9
 10
158.6583214741062
 20
13.79999840043865
 30
0.0
 11
133.4699864113323
 21
13.79999840043865
 31
0.0
  0
LINE
  5
12388
  8
-
 62
     9
 10
158.6583214741062
 20
18.59999792043834
 30
0.0
 11
133.4699864113323
 21
18.59999792043834
 31
0.0
  0
DIMENSION
  5
12389
  8
圖層4
  2
*D21
 10
136.1364706956559
 20
92.16589209836229
 30
0.0
 11
136.1364706956559
 21
96.93311779579608
 31
0.0
 12
-251.5182431642394
 22
-629.7314180681904
 32
0.0
 70
   128
  1
%%c<>
 13
129.5992721531012
 23
84.16589209836206
 33
0.0
 14
129.5992721531014
 24
92.16589209836229
 34
0.0
 50
90.0
  0
DIMENSION
  5
1238A
  8
圖層4
  2
*D22
 10
139.7866106229275
 20
83.16589209836297
 30
0.0
 11
139.7866106229275
 21
98.07422543169696
 31
0.0
 12
-251.5182431642394
 22
-629.7314180681904
 32
0.0
 70
   128
  1
%%c<>
 13
129.5992721531014
 23
93.16589209836366
 33
0.0
 14
129.5992721531012
 24
83.16589209836297
 34
0.0
 50
90.0
  0
LINE
  5
1238B
  8
2
  6
BYBLOCK
 10
129.5992721531012
 20
83.16589209836252
 30
0.0
 11
129.5992721531014
 21
93.16589209836366
 31
0.0
  0
TEXT
  5
1238C
  8
文字
  6
CONTINUOUS
 62
     3
 10
168.0669407843855
 20
16.72977037555195
 30
0.0
 40
1.013759898624
  1
±0.05
  0
TEXT
  5
1238D
  8
文字
  6
CONTINUOUS
 62
     3
 10
168.9433967063101
 20
19.30526630480229
 30
0.0
 40
0.7603199239680001
  1
容許公差
  0
TEXT
  5
1238E
  8
文字
  6
CONTINUOUS
 62
     3
 10
157.7604158867653
 20
21.56504845426864
 30
0.0
 40
1.19999988
  1
一   般   公   差
  0
LINE
  5
1238F
  8
-
 62
     8
 10
172.1712434599074
 20
16.19999816043833
 30
0.0
 11
158.6583214741062
 21
16.19999816043833
 31
0.0
  0
LINE
  5
12390
  8
-
 62
     9
 10
172.1712434599074
 20
20.99999768043836
 30
0.0
 11
158.6583214741062
 21
20.99999768043836
 31
0.0
  0
TEXT
  5
12391
  8
文字
  6
CONTINUOUS
 62
     3
 10
168.2540463988125
 20
11.9317831037069
 30
0.0
 40
1.013759898624
  1
±0.1
  0
TEXT
  5
12392
  8
文字
  6
CONTINUOUS
 62
     3
 10
168.3375219996489
 20
9.674584748858429
 30
0.0
 40
1.013759898624
  1
±0.2
  0
TEXT
  5
12393
  8
文字
  6
CONTINUOUS
 62
     3
 10
168.4019410488435
 20
7.243414953520251
 30
0.0
 40
1.013759898624
  1
±0.3
  0
LINE
  5
12394
  8
-
 62
     8
 10
172.1712434599074
 20
13.79999840043865
 30
0.0
 11
158.6583214741062
 21
13.79999840043865
 31
0.0
  0
LINE
  5
12395
  8
-
 62
     8
 10
172.1712434599074
 20
11.39999864043864
 30
0.0
 11
158.6583214741062
 21
11.39999864043864
 31
0.0
  0
LINE
  5
12396
  8
-
 62
     8
 10
172.1712434599074
 20
8.999998880438284
 30
0.0
 11
158.6583214741062
 21
8.999998880438284
 31
0.0
  0
LINE
  5
12397
  8
-
 62
     8
 10
172.1712434599074
 20
6.599999120437928
 30
0.0
 11
158.6583214741062
 21
6.599999120437928
 31
0.0
  0
TEXT
  5
12398
  8
文字
  6
CONTINUOUS
 62
     3
 10
168.2159929758066
 20
14.48412746193191
 30
0.0
 40
1.013759898624
  1
±0.07
  0
TEXT
  5
12399
  8
文字
  6
CONTINUOUS
 62
     3
 10
160.8764910224308
 20
7.201695868833276
 30
0.0
 40
1.013759898624
  1
250-1000
  0
TEXT
  5
1239A
  8
文字
  6
CONTINUOUS
 62
     3
 10
159.0912502303507
 20
19.01685300040043
 30
0.0
 40
1.26719987328
  1
寸     法
  0
TEXT
  5
1239B
  8
文字
  6
CONTINUOUS
 62
     3
 10
164.8479613890157
 20
16.67905409474753
 30
0.0
 40
1.140479885952
  1
1-4
  0
TEXT
  5
1239C
  8
文字
  6
CONTINUOUS
 62
     3
 10
163.657453138063
 20
14.39350393399588
 30
0.0
 40
1.140479885952
  1
4-16
  0
TEXT
  5
1239D
  8
文字
  6
CONTINUOUS
 62
     3
 10
161.3054515815577
 20
9.611128341773055
 30
0.0
 40
1.140479885952
  1
63-250
  0
TEXT
  5
1239E
  8
文字
  6
CONTINUOUS
 62
     3
 10
162.7150529384724
 20
11.96382737220103
 30
0.0
 40
1.140479885952
  1
16-63
  0
TEXT
  5
1239F
  8
0
  6
CONTINUOUS
 62
     3
 10
177.4679519082223
 20
20.04739084268617
 30
0.0
 40
1.79999982
  1
030221
 41
0.5
  0
TEXT
  5
123A0
  8
0
  6
CONTINUOUS
 62
     3
 10
177.8168709750872
 20
14.85790823328342
 30
0.0
 40
2.39999976
  1
李国慶
 41
0.5
  0
LINE
  5
123A1
  8
-
 62
     8
 10
176.491243027908
 20
23.39999744043837
 30
0.0
 11
176.491243027908
 21
13.79999840043865
 31
0.0
  0
TEXT
  5
123A2
  8
0
  6
CONTINUOUS
 62
     3
 10
172.8782626499197
 20
19.72555845443672
 30
0.0
 40
2.159999784
  1
日 付
 41
0.5
  0
TEXT
  5
123A3
  8
0
  6
CONTINUOUS
 62
     3
 10
172.7650675047477
 20
15.32447262490005
 30
0.0
 40
2.159999784
  1
製 図
 41
0.5
  0
LINE
  5
123A4
  8
-
 62
     9
 10
183.2592423511072
 20
23.39999744043837
 30
0.0
 11
183.2592423511072
 21
13.79999840043865
 31
0.0
  0
LINE
  5
123A5
  8
文字
 62
     3
 10
185.9053104752201
 20
19.38116472237539
 30
0.0
 11
185.9053104752201
 21
22.47030942915478
 31
0.0
  0
CIRCLE
  5
123A6
  8
文字
 62
     3
 10
185.9053104752201
 20
20.97640824225448
 30
0.0
 40
1.279632763806939
  0
CIRCLE
  5
123A7
  8
文字
 62
     3
 10
185.9053104752201
 20
20.97640824225448
 30
0.0
 40
0.6398163819034693
  0
TEXT
  5
123A8
  8
0
  6
CONTINUOUS
 62
     3
 10
183.7394159992716
 20
15.36685321283253
 30
0.0
 40
2.159999784
  1
検 図
 41
0.5
  0
LINE
  5
123A9
  8
-
 62
     8
 10
187.5792419191074
 20
18.59999792043834
 30
0.0
 11
187.5792419191074
 21
13.79999840043865
 31
0.0
  0
LINE
  5
123AA
  8
文字
 62
     3
 10
184.3061432159964
 20
20.97640824225448
 30
0.0
 11
187.5999943834094
 21
20.97640824225448
 31
0.0
  0
LINE
  5
123AB
  8
CENTER
 10
181.357156179569
 20
104.1658920983634
 30
0.0
 11
181.3571561795694
 21
72.16589209836343
 31
0.0
  0
CIRCLE
  5
123AC
  8
2
 10
181.3571561795692
 20
88.1658920983632
 30
0.0
 40
4.000000000000227
  0
CIRCLE
  5
123AD
  8
2
 62
     3
 10
181.3571561795692
 20
88.1658920983632
 30
0.0
 40
5.000000000000568
  0
TEXT
  5
123AE
  8
文字
  6
CONTINUOUS
 62
     3
 10
210.9369839621877
 20
4.94749535455937
 30
0.0
 40
1.79999982
  1
NP80018
  0
LINE
  5
123AF
  8
-
 62
     9
 10
205.4352401335076
 20
23.39999744043837
 30
0.0
 11
205.4352401335076
 21
4.199999360438255
 31
0.0
  0
LINE
  5
123B0
  8
-
 62
     9
 10
222.7499774833323
 20
4.199999360438255
 30
0.0
 11
222.7499774833323
 21
157.4999840304381
 31
0.0
  0
LINE
  5
123B1
  8
-
 62
     9
 10
222.7499774833323
 20
-0.0000002195620254
 30
0.0
 11
221.5499776033321
 21
-0.0000002195620254
 31
0.0
  0
LINE
  5
123B2
  8
-
 62
     9
 10
222.7499774833323
 20
-0.0000002195620254
 30
0.0
 11
221.5499776033321
 21
-0.0000002195620254
 31
0.0
  0
LINE
  5
123B3
  8
-
 62
     9
 10
222.7499774833323
 20
-0.0000002195620254
 30
0.0
 11
222.7499774833323
 21
1.199999660438152
 31
0.0
  0
TEXT
  5
123B4
  8
0
  6
CONTINUOUS
 62
     3
 10
206.7445361680013
 20
20.82020575594294
 30
0.0
 40
1.919999808
  1
品     名
 41
0.5
  0
TEXT
  5
123B5
  8
0
  6
CONTINUOUS
 62
     3
 10
194.9791721326893
 20
20.07125893937869
 30
0.0
 40
2.159999784
  1
尺 度
 41
0.5
  0
TEXT
  5
123B6
  8
0
  6
CONTINUOUS
 62
     3
 10
194.9426532890626
 20
15.11045893259504
 30
0.0
 40
2.159999784
  1
承 認
 41
0.5
  0
LINE
  5
123B7
  8
-
 62
     9
 10
194.3472412423076
 20
23.39999744043837
 30
0.0
 11
194.3472412423076
 21
13.79999840043865
 31
0.0
  0
LINE
  5
123B8
  8
文字
 62
     3
 10
192.6233824852064
 20
19.69677547844742
 30
0.0
 11
192.6233824852064
 21
22.25604100606108
 31
0.0
  0
LINE
  5
123B9
  8
文字
 62
     3
 10
190.0641169575924
 20
20.33659186035084
 30
0.0
 11
190.0641169575924
 21
21.61622462415801
 31
0.0
  0
TEXT
  5
123BA
  8
0
  6
CONTINUOUS
 62
     3
 10
188.7658743395439
 20
14.85790823328331
 30
0.0
 40
2.39999976
  1
小 柳
 41
0.5
  0
LINE
  5
123BB
  8
文字
 62
     3
 10
190.0641169575924
 20
20.33659186035084
 30
0.0
 11
192.6233824852064
 21
19.69677547844742
 31
0.0
  0
LINE
  5
123BC
  8
文字
 62
     3
 10
189.6958598686834
 20
20.97640824225448
 30
0.0
 11
192.8531413487805
 21
20.97640824225448
 31
0.0
  0
LINE
  5
123BD
  8
-
 62
     8
 10
198.6672408103074
 20
23.39999744043837
 30
0.0
 11
198.6672408103074
 21
13.79999840043865
 31
0.0
  0
TEXT
  5
123BE
  8
0
  6
CONTINUOUS
 62
     3
 10
200.41014959069
 20
19.98355047892355
 30
0.0
 40
2.159999784
  1
2 : 1
 41
0.5
  0
TEXT
  5
123BF
  8
文字
  6
CONTINUOUS
 62
     3
 10
209.7232766063759
 20
14.89235619563874
 30
0.0
 40
1.49999985
  1
NNM24-80
  0
TEXT
  5
123C0
  8
0
  6
CONTINUOUS
 62
     3
 10
206.7032377848146
 20
10.82527853624509
 30
0.0
 40
1.919999808
  1
図  面  番  号
 41
0.5
  0
DIMENSION
  5
123C1
  8
圖層4
  2
*D17
 10
206.1189689405794
 20
72.16589209836366
 30
0.0
 11
203.8689689405794
 21
88.16589209836366
 31
0.0
 12
-251.5182431642394
 22
-629.7314180681904
 32
0.0
 70
     0
 13
190.5947604866033
 23
104.1658920983637
 33
0.0
 14
190.5947604866038
 24
72.16589209836366
 34
0.0
 50
90.00000000000124
  0
ENDBLK
  8
0
  0
BLOCK
  8
0
  2
*D28
 70
     1
 10
0.0
 20
0.0
 30
0.0
  0
LINE
  5
1269D
  8
0
  6
BYBLOCK
 62
     6
 10
751.8358502697124
 20
718.5289971787079
 30
0.0
 11
747.1752473099833
 21
718.5289971787079
 31
0.0
  0
LINE
  5
1269E
  8
0
  6
BYBLOCK
 62
     6
 10
751.8358502697131
 20
706.5289971787014
 30
0.0
 11
747.1752473099833
 21
706.5289971787014
 31
0.0
  0
LINE
  5
1269F
  8
0
  6
BYBLOCK
 62
     6
 10
747.7752473099833
 20
717.3289971787078
 30
0.0
 11
747.7752473099833
 21
707.7289971787014
 31
0.0
  0
SOLID
  5
126A0
  8
0
  6
BYBLOCK
 62
     6
 10
747.5752473099833
 20
717.3289971787078
 30
0.0
 11
747.9752473099834
 21
717.3289971787078
 31
0.0
 12
747.7752473099833
 22
718.5289971787079
 32
0.0
 13
747.7752473099833
 23
718.5289971787079
 33
0.0
  0
SOLID
  5
126A1
  8
0
  6
BYBLOCK
 62
     6
 10
747.5752473099833
 20
707.7289971787014
 30
0.0
 11
747.9752473099834
 21
707.7289971787014
 31
0.0
 12
747.7752473099833
 22
706.5289971787014
 32
0.0
 13
747.7752473099833
 23
706.5289971787014
 33
0.0
  0
TEXT
  5
126A2
  8
0
  6
CONTINUOUS
 62
     3
 10
746.7752473099833
 20
710.7789971787047
 30
0.0
 40
1.5
  1
\U+220512
 50
90.0
  0
POINT
  5
126A3
  8
DEFPOINTS
  6
BYBLOCK
 62
     0
 10
752.4358502697124
 20
718.5289971787079
 30
0.0
  0
POINT
  5
126A4
  8
DEFPOINTS
  6
BYBLOCK
 62
     0
 10
752.4358502697131
 20
706.5289971787014
 30
0.0
  0
POINT
  5
126A5
  8
DEFPOINTS
  6
BYBLOCK
 62
     0
 10
747.7752473099833
 20
706.5289971787014
 30
0.0
  0
ENDBLK
  8
0
  0
BLOCK
  8
0
  2
A$C60F60FC9
 70
     0
 10
0.0
 20
0.0
 30
0.0
  0
LINE
  5
1254D
  8
文字
 62
     3
 39
1.706666495829334
 10
168.9458814457931
 20
19.21442237534984
 30
0.0
 11
171.2207841367782
 21
19.78314804809565
 31
0.0
  0
LINE
  5
1254E
  8
-
 62
     8
 10
176.5931026474417
 20
20.79999821188494
 30
0.0
 11
176.5931026474417
 21
12.26666573273849
 31
0.0
  0
LINE
  5
1254F
  8
-
 62
     9
 10
172.7531030318261
 20
20.79999821188494
 30
0.0
 11
172.7531030318261
 21
12.26666573273849
 31
0.0
  0
LINE
  5
12550
  8
-
 62
     9
 10
182.6091020452403
 20
20.79999821188494
 30
0.0
 11
182.6091020452403
 21
3.733333253591468
 31
0.0
  0
LINE
  5
12551
  8
-
 62
     8
 10
166.7371036340273
 20
16.53333197231154
 30
0.0
 11
166.7371036340273
 21
12.26666573273849
 31
0.0
  0
LINE
  5
12552
  8
-
 62
     8
 10
149.2875155648723
 20
3.733333253591468
 30
0.0
 11
149.2875155648723
 21
18.66666509209824
 31
0.0
  0
LINE
  5
12553
  8
-
 62
     9
 10
162.8971040184113
 20
20.79999821188494
 30
0.0
 11
162.8971040184113
 21
12.26666573273849
 31
0.0
  0
LINE
  5
12554
  8
-
 62
     8
 10
156.8811046206135
 20
20.79999821188494
 30
0.0
 11
156.8811046206135
 21
12.26666573273849
 31
0.0
  0
LINE
  5
12555
  8
-
 62
     9
 10
153.0411050049969
 20
20.79999821188494
 30
0.0
 11
153.0411050049969
 21
3.733333253591468
 31
0.0
  0
LINE
  5
12556
  8
-
 10
133.8362370800983
 20
3.733333253591468
 30
0.0
 11
133.8362370800983
 21
20.79999821188494
 31
0.0
  0
LINE
  5
12557
  8
-
 62
     9
 10
141.029618796597
 20
3.733333253591468
 30
0.0
 11
141.029618796597
 21
20.79999821188494
 31
0.0
  0
LINE
  5
12558
  8
-
 10
126.4602783391524
 20
3.733333253591468
 30
0.0
 11
126.4602783391529
 21
20.79999821188494
 31
0.0
  0
LINE
  5
12559
  8
-
 62
     9
 10
197.9999796879898
 20
3.733333253591468
 30
0.0
 11
197.9999796879898
 21
139.9999862799647
 31
0.0
  0
LINE
  5
1255A
  8
-
 10
102.3494856272637
 20
3.733333253591468
 30
0.0
 11
102.3494856272632
 21
20.79999821188494
 31
0.0
  0
LINE
  5
1255B
  8
-
 62
     9
 10
96.59554539413023
 20
20.79999821188494
 30
0.0
 11
96.59554539413023
 21
3.733333253591468
 31
0.0
  0
LINE
  5
1255C
  8
-
 62
     9
 10
96.59554539413023
 20
3.733333253591468
 30
0.0
 11
96.59554539413023
 21
20.79999821188494
 31
0.0
  0
TEXT
  5
1255D
  8
文字
  6
CONTINUOUS
 62
     3
 10
9.032151476631224
 20
14.6987776727293
 30
0.0
 40
1.9999997998
  1
註:
  0
LINE
  5
1255E
  8
-
 62
     9
 10
7.999998706989913
 20
3.733333253591468
 30
0.0
 11
7.999998706989913
 21
139.9999862799647
 31
0.0
  0
LINE
  5
1255F
  8
-
 62
     9
 10
141.029618796597
 20
12.26666573273849
 30
0.0
 11
118.6399876319259
 21
12.26666573273849
 31
0.0
  0
TEXT
  5
12560
  8
文字
  6
CONTINUOUS
 62
     3
 10
105.4171877329515
 20
4.711540778751059
 30
0.0
 40
2.133333119786667
  1
更  改  内  容
  0
LINE
  5
12561
  8
-
 62
     9
 10
141.029618796597
 20
7.999999493164864
 30
0.0
 11
96.59554539413023
 21
7.999999493164864
 31
0.0
  0
LINE
  5
12562
  8
-
 62
     9
 10
141.029618796597
 20
12.26666573273849
 30
0.0
 11
96.59554539413023
 21
12.26666573273849
 31
0.0
  0
LINE
  5
12563
  8
-
 62
     9
 10
7.999998706989913
 20
3.733333253591468
 30
0.0
 11
197.9999796879898
 21
3.733333253591468
 31
0.0
  0
TEXT
  5
12564
  8
文字
  6
CONTINUOUS
 62
     3
 10
26.89835659542819
 20
9.480894694131043
 30
0.0
 40
1.9999997998
  1
黒 染
  0
TEXT
  5
12565
  8
文字
  6
CONTINUOUS
 62
     3
 10
15.61818162650975
 20
6.232060159337712
 30
0.0
 40
1.9999997998
  1
ボイン卜・フイツ卜・ノズル
  0
TEXT
  5
12566
  8
文字
  6
CONTINUOUS
 62
     3
 10
10.35291453672096
 20
9.569379085565279
 30
0.0
 40
1.9999997998
  1
表 面 処 理 :
  0
LINE
  5
12567
  8
0
 62
     3
 10
99.52843117050611
 20
15.61746226765104
 30
0.0
 11
98.40235433846829
 21
13.36530860357618
 31
0.0
  0
TEXT
  5
12568
  8
0
  6
CONTINUOUS
 62
     3
 10
99.29264071512443
 20
13.52247714582751
 30
0.0
 40
1.493333183850666
  1
2
 41
0.5
  0
LINE
  5
12569
  8
0
 62
     3
 10
99.52843117050611
 20
15.61746226765104
 30
0.0
 11
100.6545080025434
 21
13.36530860357618
 31
0.0
  0
LINE
  5
1256A
  8
0
 62
     3
 10
99.58584701924963
 20
11.34555453337725
 30
0.0
 11
98.45977018721237
 21
9.093400869302286
 31
0.0
  0
LINE
  5
1256B
  8
0
 62
     3
 10
99.58584701924963
 20
11.34555453337725
 30
0.0
 11
100.7119238512875
 21
9.093400869302286
 31
0.0
  0
TEXT
  5
1256C
  8
0
  6
CONTINUOUS
 62
     3
 10
99.47455335696361
 20
9.341863078040944
 30
0.0
 40
1.493333183850666
  1
1
 41
0.5
  0
LINE
  5
1256D
  8
0
 62
     3
 10
98.45977018721237
 20
9.093400869302286
 30
0.0
 11
100.7119238512875
 21
9.093400869302286
 31
0.0
  0
LINE
  5
1256E
  8
0
 62
     3
 10
98.40235433846829
 20
13.36530860357618
 30
0.0
 11
100.6545080025434
 21
13.36530860357618
 31
0.0
  0
LINE
  5
1256F
  8
0
 62
     3
 10
98.35894314845086
 20
4.670954114654251
 30
0.0
 11
100.6110968125259
 21
4.670954114654251
 31
0.0
  0
LINE
  5
12570
  8
0
 62
     3
 10
99.48501998048914
 20
6.923107778729218
 30
0.0
 11
98.35894314845086
 21
4.670954114654251
 31
0.0
  0
LINE
  5
12571
  8
0
 62
     3
 10
99.48501998048914
 20
6.923107778729218
 30
0.0
 11
100.6110968125259
 21
4.670954114654251
 31
0.0
  0
TEXT
  5
12572
  8
文字
  6
CONTINUOUS
 62
     3
 10
186.4206900207421
 20
13.23765043948598
 30
0.0
 40
1.333333199866666
  1
NNM24-40
  0
TEXT
  5
12573
  8
文字
  6
CONTINUOUS
 62
     3
 10
187.499541003578
 20
4.397774137188177
 30
0.0
 40
1.59999983984
  1
NP80016
  0
LINE
  5
12574
  8
-
 62
     9
 10
197.9999796879898
 20
12.26666573273849
 30
0.0
 11
153.0411050049969
 21
12.26666573273849
 31
0.0
  0
TEXT
  5
12575
  8
0
  6
CONTINUOUS
 62
     3
 10
153.5689486003578
 20
13.62175393212423
 30
0.0
 40
1.919999807808
  1
製 図
 41
0.5
  0
TEXT
  5
12576
  8
0
  6
CONTINUOUS
 62
     3
 10
154.2777145731128
 20
6.030304291942018
 30
0.0
 40
2.559999743744
  1
日機株式会社
 41
1.5
  0
TEXT
  5
12577
  8
文字
  6
CONTINUOUS
 62
     3
 10
134.9579535440829
 20
4.752645696118377
 30
0.0
 40
1.59999983984
  1
日 付
  0
TEXT
  5
12578
  8
文字
  6
CONTINUOUS
 62
     3
 10
127.771544041412
 20
4.752645696118377
 30
0.0
 40
1.59999983984
  1
担  当
  0
TEXT
  5
12579
  8
文字
  6
CONTINUOUS
 62
     3
 10
145.4732913863365
 20
12.79422620695885
 30
0.0
 40
1.013759898522624
  1
4-16
  0
TEXT
  5
1257A
  8
文字
  6
CONTINUOUS
 62
     3
 10
143.3826233363186
 20
8.543225680963637
 30
0.0
 40
1.013759898522624
  1
63-250
  0
TEXT
  5
1257B
  8
文字
  6
CONTINUOUS
 62
     3
 10
144.6356023201174
 20
10.63451370780154
 30
0.0
 40
1.013759898522624
  1
16-63
  0
TEXT
  5
1257C
  8
文字
  6
CONTINUOUS
 62
     3
 10
143.0013250615773
 20
6.401507927453514
 30
0.0
 40
0.9011199097978878
  1
250-1000
  0
TEXT
  5
1257D
  8
文字
  6
CONTINUOUS
 62
     3
 10
142.58307316666
 20
4.287089087061423
 30
0.0
 40
0.9011199097978878
  1
1000-1500
  0
LINE
  5
1257E
  8
-
 62
     8
 10
153.0411050049969
 20
5.866666373377825
 30
0.0
 11
141.029618796597
 21
5.866666373377825
 31
0.0
  0
LINE
  5
1257F
  8
-
 62
     8
 10
153.0411050049969
 20
7.999999493164864
 30
0.0
 11
141.029618796597
 21
7.999999493164864
 31
0.0
  0
LINE
  5
12580
  8
-
 62
     8
 10
153.0411050049969
 20
10.13333261295179
 30
0.0
 11
141.029618796597
 21
10.13333261295179
 31
0.0
  0
LINE
  5
12581
  8
-
 62
     8
 10
153.0411050049969
 20
12.26666573273849
 30
0.0
 11
141.029618796597
 21
12.26666573273849
 31
0.0
  0
LINE
  5
12582
  8
-
 62
     8
 10
153.0411050049969
 20
14.39999885252485
 30
0.0
 11
141.029618796597
 21
14.39999885252485
 31
0.0
  0
TEXT
  5
12583
  8
文字
  6
CONTINUOUS
 62
     3
 10
149.525326797259
 20
12.87478045400497
 30
0.0
 40
0.9011199097978878
  1
±0.07
  0
TEXT
  5
12584
  8
文字
  6
CONTINUOUS
 62
     3
 10
149.6906139732752
 20
6.438591558282615
 30
0.0
 40
0.9011199097978878
  1
±0.3
  0
TEXT
  5
12585
  8
文字
  6
CONTINUOUS
 62
     3
 10
149.6906139732752
 20
4.287089087061423
 30
0.0
 40
0.9011199097978878
  1
±0.5
  0
TEXT
  5
12586
  8
文字
  6
CONTINUOUS
 62
     3
 10
149.6333525962191
 20
8.599631376145004
 30
0.0
 40
0.9011199097978878
  1
±0.2
  0
TEXT
  5
12587
  8
文字
  6
CONTINUOUS
 62
     3
 10
149.5591520621497
 20
10.60602991358747
 30
0.0
 40
0.9011199097978878
  1
±0.1
  0
TEXT
  5
12588
  8
文字
  6
CONTINUOUS
 62
     3
 10
146.5315209426332
 20
14.82582634964597
 30
0.0
 40
1.013759898522624
  1
1-4
  0
TEXT
  5
12589
  8
文字
  6
CONTINUOUS
 62
     3
 10
149.3928359604534
 20
14.87090748813433
 30
0.0
 40
0.9011199097978878
  1
±0.05
  0
TEXT
  5
1258A
  8
0
  6
CONTINUOUS
 62
     3
 10
173.2823581844442
 20
13.43151953898318
 30
0.0
 40
1.919999807808
  1
承 認
 41
0.5
  0
TEXT
  5
1258B
  8
0
  6
CONTINUOUS
 62
     3
 10
163.3239250389591
 20
13.65942556583824
 30
0.0
 40
1.919999807808
  1
検 図
 41
0.5
  0
TEXT
  5
1258C
  8
0
  6
CONTINUOUS
 62
     3
 10
158.0594405735438
 20
13.20703002850647
 30
0.0
 40
2.133333119786667
  1
李国慶
 41
0.5
  0
TEXT
  5
1258D
  8
0
  6
CONTINUOUS
 62
     3
 10
167.7918880076433
 20
13.20703002850636
 30
0.0
 40
2.133333119786667
  1
小 柳
 41
0.5
  0
TEXT
  5
1258E
  8
0
  6
CONTINUOUS
 62
     3
 10
183.7362110685116
 20
9.622470298164151
 30
0.0
 40
1.706666495829334
  1
図  面  番  号
 41
0.5
  0
LINE
  5
1258F
  8
-
 62
     9
 10
197.9999796879898
 20
0.0000002939646038
 30
0.0
 11
197.9999796879898
 21
1.06666685385801
 31
0.0
  0
LINE
  5
12590
  8
-
 62
     9
 10
197.9999796879898
 20
0.0000002939646038
 30
0.0
 11
196.9333131280963
 21
0.0000002939646038
 31
0.0
  0
LINE
  5
12591
  8
-
 62
     9
 10
197.9999796879898
 20
0.0000002939646038
 30
0.0
 11
196.9333131280963
 21
0.0000002939646038
 31
0.0
  0
LINE
  5
12592
  8
-
 62
     9
 10
141.029618796597
 20
16.53333197231154
 30
0.0
 11
118.6399876319259
 21
16.53333197231154
 31
0.0
  0
LINE
  5
12593
  8
-
 62
     9
 10
141.029618796597
 20
16.53333197231154
 30
0.0
 11
96.59554539413023
 21
16.53333197231154
 31
0.0
  0
LINE
  5
12594
  8
-
 62
     9
 10
197.9999796879898
 20
20.79999821188494
 30
0.0
 11
96.59554539413023
 21
20.79999821188494
 31
0.0
  0
LINE
  5
12595
  8
0
 62
     3
 10
98.30091289728045
 20
17.63646831811207
 30
0.0
 11
100.5530665613551
 21
17.63646831811207
 31
0.0
  0
LINE
  5
12596
  8
0
 62
     3
 10
99.42698972931737
 20
19.88862198218737
 30
0.0
 11
98.30091289728045
 21
17.63646831811207
 31
0.0
  0
LINE
  5
12597
  8
0
 62
     3
 10
99.42698972931737
 20
19.88862198218737
 30
0.0
 11
100.5530665613551
 21
17.63646831811207
 31
0.0
  0
TEXT
  5
12598
  8
0
  6
CONTINUOUS
 62
     3
 10
99.10820280328687
 20
17.84431830618513
 30
0.0
 40
1.493333183850666
  1
3
 41
0.5
  0
TEXT
  5
12599
  8
0
  6
CONTINUOUS
 62
     3
 10
153.6695665071674
 20
17.53383022465452
 30
0.0
 40
1.919999807808
  1
日 付
 41
0.5
  0
LINE
  5
1259A
  8
-
 62
     9
 10
182.6091020452403
 20
16.53333197231154
 30
0.0
 11
141.029618796597
 21
16.53333197231154
 31
0.0
  0
TEXT
  5
1259B
  8
文字
  6
CONTINUOUS
 62
     3
 10
141.4144443576648
 20
16.90386982112964
 30
0.0
 40
1.12639988724736
  1
寸     法
  0
LINE
  5
1259C
  8
-
 62
     9
 10
153.0411050049969
 20
18.66666509209824
 30
0.0
 11
141.029618796597
 21
18.66666509209824
 31
0.0
  0
TEXT
  5
1259D
  8
文字
  6
CONTINUOUS
 62
     3
 10
140.2314804968183
 20
19.16893244656385
 30
0.0
 40
1.066666559893333
  1
一   般   公   差
  0
TEXT
  5
1259E
  8
文字
  6
CONTINUOUS
 62
     3
 10
150.1719078909751
 20
17.16023720279455
 30
0.0
 40
0.6758399323484161
  1
容許公差
  0
TEXT
  5
1259F
  8
0
  6
CONTINUOUS
 62
     3
 10
173.3148193787757
 20
17.84111954457221
 30
0.0
 40
1.919999807808
  1
尺 度
 41
0.5
  0
LINE
  5
125A0
  8
文字
 62
     3
 10
163.8276825648862
 20
18.64569670260346
 30
0.0
 11
166.7555502689606
 21
18.64569670260346
 31
0.0
  0
CIRCLE
  5
125A1
  8
文字
 62
     3
 10
165.249164572943
 20
18.64569670260346
 30
0.0
 40
1.137451345492422
  0
TEXT
  5
125A2
  8
0
  6
CONTINUOUS
 62
     3
 10
157.7492902919172
 20
17.81990345862544
 30
0.0
 40
1.59999983984
  1
030221
 41
0.5
  0
LINE
  5
125A3
  8
文字
 62
     3
 10
168.9458814457931
 20
18.07697102985719
 30
0.0
 11
171.2207841367782
 21
17.50824535711104
 31
0.0
  0
LINE
  5
125A4
  8
文字
 62
     3
 10
168.6185418112401
 20
18.64569670260346
 30
0.0
 11
171.4250142377124
 21
18.64569670260346
 31
0.0
  0
LINE
  5
125A5
  8
文字
 62
     3
 10
168.9458814457931
 20
18.07697102985719
 30
0.0
 11
168.9458814457931
 21
19.21442237534984
 31
0.0
  0
LINE
  5
125A6
  8
文字
 62
     3
 10
171.2207841367782
 20
17.50824535711104
 30
0.0
 11
171.2207841367782
 21
19.78314804809565
 31
0.0
  0
CIRCLE
  5
125A7
  8
文字
 62
     3
 10
165.249164572943
 20
18.64569670260346
 30
0.0
 40
0.5687256727462112
  0
LINE
  5
125A8
  8
文字
 62
     3
 10
165.249164572943
 20
17.22770246285279
 30
0.0
 11
165.249164572943
 21
19.9736088686044
 31
0.0
  0
TEXT
  5
125A9
  8
0
  6
CONTINUOUS
 62
     3
 10
178.1423548965158
 20
17.76315646861989
 30
0.0
 40
1.919999807808
  1
1.5 : 1
 41
0.5
  0
TEXT
  5
125AA
  8
0
  6
CONTINUOUS
 62
     3
 10
183.7729207424517
 20
18.50685004811821
 30
0.0
 40
1.706666495829334
  1
品     名
 41
0.5
  0
LINE
  5
125AB
  8
-
 62
     9
 10
7.999998706989913
 20
139.9999862799647
 30
0.0
 11
197.9999796879898
 21
139.9999862799647
 31
0.0
  0
LINE
  5
125AC
  8
-
 62
     9
 10
-0.0000004922103471
 20
138.6666530800981
 30
0.0
 11
-0.0000004922103471
 21
139.9999862799647
 31
0.0
  0
LINE
  5
125AD
  8
-
 62
     9
 10
1.333332707656496
 20
139.9999862799647
 30
0.0
 11
-0.0000004922103471
 21
139.9999862799647
 31
0.0
  0
LINE
  5
125AE
  8
-
 62
     9
 10
-0.0000004922103471
 20
139.9999862799647
 30
0.0
 11
-0.0000004922103471
 21
138.6666530800981
 31
0.0
  0
ENDBLK
  8
0
  0
BLOCK
  8
0
  2
*D30
 70
     1
 10
0.0
 20
0.0
 30
0.0
  0
LINE
  5
126AA
  8
0
  6
BYBLOCK
 62
     6
 10
512.3207624953391
 20
723.8973101665565
 30
0.0
 11
507.66015953561
 21
723.8973101665565
 31
0.0
  0
LINE
  5
126AB
  8
0
  6
BYBLOCK
 62
     6
 10
512.3207624953397
 20
711.89731016655
 30
0.0
 11
507.66015953561
 21
711.89731016655
 31
0.0
  0
LINE
  5
126AC
  8
0
  6
BYBLOCK
 62
     6
 10
508.26015953561
 20
722.6973101665565
 30
0.0
 11
508.26015953561
 21
713.0973101665501
 31
0.0
  0
SOLID
  5
126AD
  8
0
  6
BYBLOCK
 62
     6
 10
508.06015953561
 20
722.6973101665565
 30
0.0
 11
508.46015953561
 21
722.6973101665565
 31
0.0
 12
508.26015953561
 22
723.8973101665565
 32
0.0
 13
508.26015953561
 23
723.8973101665565
 33
0.0
  0
SOLID
  5
126AE
  8
0
  6
BYBLOCK
 62
     6
 10
508.06015953561
 20
713.0973101665501
 30
0.0
 11
508.46015953561
 21
713.0973101665501
 31
0.0
 12
508.26015953561
 22
711.89731016655
 32
0.0
 13
508.26015953561
 23
711.89731016655
 33
0.0
  0
TEXT
  5
126AF
  8
0
  6
CONTINUOUS
 62
     3
 10
507.26015953561
 20
716.1473101665533
 30
0.0
 40
1.5
  1
\U+220512
 50
90.0
  0
POINT
  5
126B0
  8
DEFPOINTS
  6
BYBLOCK
 62
     0
 10
512.9207624953391
 20
723.8973101665565
 30
0.0
  0
POINT
  5
126B1
  8
DEFPOINTS
  6
BYBLOCK
 62
     0
 10
512.9207624953398
 20
711.89731016655
 30
0.0
  0
POINT
  5
126B2
  8
DEFPOINTS
  6
BYBLOCK
 62
     0
 10
508.26015953561
 20
711.89731016655
 30
0.0
  0
ENDBLK
  8
0
  0
BLOCK
  8
0
  2
A$C165F7C39
 70
     0
 10
0.0
 20
0.0
 30
0.0
  0
LINE
  5
126B6
  8
0
  6
HIDDEN
 62
     6
 10
7.160602785940796
 20
14.7458657456458
 30
0.0
 11
25.16060278594148
 21
14.74586574564705
 31
0.0
  0
LINE
  5
126B7
  8
2
 10
7.160602785941251
 20
9.29786574564946
 30
0.0
 11
23.42060278591305
 21
7.515211924640312
 31
0.0
  0
LINE
  5
126B8
  8
2
 10
8.418635393175805
 20
8.039833138414679
 30
0.0
 11
23.42060278591305
 21
6.381865745649066
 31
0.0
  0
LINE
  5
126B9
  8
2
 10
7.160602785941251
 20
32.19386574564919
 30
0.0
 11
23.42060278591305
 21
33.976519566658
 31
0.0
  0
LINE
  5
126BA
  8
2
 10
8.418635393175805
 20
33.4518983528842
 30
0.0
 11
23.42060278591305
 21
35.10986574564936
 31
0.0
  0
LINE
  5
126BB
  8
0
  6
HIDDEN
 62
     6
 10
7.16060278594216
 20
26.74586574565228
 30
0.0
 11
25.16060278594148
 21
26.74586574565171
 31
0.0
  0
LINE
  5
126BC
  8
2
 10
7.160602785941251
 20
20.74586574564933
 30
0.0
 11
7.160602785941251
 21
9.29786574564946
 31
0.0
  0
LINE
  5
126BD
  8
2
 10
7.160602785941819
 20
11.29586574564871
 30
0.0
 11
7.160602785941819
 21
20.74586574564933
 31
0.0
  0
LINE
  5
126BE
  8
2
 10
7.160602785941251
 20
9.297865745649915
 30
0.0
 11
8.418635393175805
 21
8.039833138414679
 31
0.0
  0
DIMENSION
  5
126BF
  8
圖層4
  2
*D30
 10
2.499999826212729
 20
14.7458657456458
 30
0.0
 11
0.7499998262127292
 21
20.7458657456491
 31
0.0
 12
-505.7601597093973
 22
-697.1514444209042
 32
0.0
 70
     0
  1
%%c<>
 13
7.160602785941819
 23
26.74586574565228
 33
0.0
 14
7.160602785942501
 24
14.7458657456458
 34
0.0
 50
90.0
  0
LINE
  5
126C0
  8
2
 10
7.160602785941251
 20
30.19586574564994
 30
0.0
 11
7.160602785941251
 21
20.74586574564933
 31
0.0
  0
LINE
  5
126C1
  8
2
 10
7.160602785941819
 20
30.19586574564994
 30
0.0
 11
7.160602785941819
 21
20.74586574564933
 31
0.0
  0
LINE
  5
126C2
  8
2
 10
7.160602785941251
 20
20.74586574564933
 30
0.0
 11
7.160602785941251
 21
32.19386574564919
 31
0.0
  0
POINT
  5
126C3
  8
DEFPOINTS
  6
BYBLOCK
 62
     0
 10
7.160602785941251
 20
20.74586574564967
 30
0.0
  0
LINE
  5
126C4
  8
2
 10
7.160602785941251
 20
32.19386574564874
 30
0.0
 11
8.418635393175805
 21
33.4518983528842
 31
0.0
  0
LINE
  5
126C5
  8
2
  6
BYBLOCK
 10
23.42060278591305
 20
33.976519566658
 30
0.0
 11
23.42060278591305
 21
7.515211924640312
 31
0.0
  0
LINE
  5
126C6
  8
2
 10
23.42060278591305
 20
6.381865745649066
 30
0.0
 11
23.42060278591305
 21
7.515211924640312
 31
0.0
  0
LINE
  5
126C7
  8
2
 10
23.42060278591305
 20
6.381865745649066
 30
0.0
 11
23.42060278591305
 21
7.515211924640312
 31
0.0
  0
LINE
  5
126C8
  8
2
 10
23.42060278591305
 20
6.381865745649066
 30
0.0
 11
25.16060278594125
 21
6.381865745649066
 31
0.0
  0
LINE
  5
126C9
  8
2
 10
23.42060278591305
 20
7.515211924640312
 30
0.0
 11
25.16060278594136
 21
7.515211924640425
 31
0.0
  0
LINE
  5
126CA
  8
2
 10
23.42060278591305
 20
6.381865745649066
 30
0.0
 11
25.16060278594125
 21
6.381865745649066
 31
0.0
  0
POINT
  5
126CB
  8
DEFPOINTS
  6
BYBLOCK
 62
     0
 10
25.27732427610215
 20
20.74586574565126
 30
0.0
  0
LINE
  5
126CC
  8
2
 10
23.42060278591305
 20
35.10986574564936
 30
0.0
 11
23.42060278591305
 21
33.976519566658
 31
0.0
  0
LINE
  5
126CD
  8
2
 10
23.42060278591305
 20
35.10986574564936
 30
0.0
 11
25.16060278594159
 21
35.10986574564936
 31
0.0
  0
LINE
  5
126CE
  8
2
 10
23.42060278591305
 20
33.976519566658
 30
0.0
 11
25.16060278594159
 21
33.976519566658
 31
0.0
  0
TEXT
  5
126CF
  8
圖層4
  6
CONTINUOUS
 62
     3
 10
5.422710850822455
 20
0.7958071344328346
 30
0.0
 40
1.5
  1
PT1/2"
  0
INSERT
  5
126D0
  8
圖層4
 62
     6
  2
*X36
 10
0.0
 20
0.0
 30
0.0
  0
TEXT
  5
126D1
  8
0
  6
CONTINUOUS
 62
     3
 10
83.1443006311666
 20
30.54027457466059
 30
0.0
 40
1.5
  1
35°
 50
104.7380042192407
  0
TEXT
  5
126D2
  8
0
  6
CONTINUOUS
 62
     3
 10
81.92994611465086
 20
7.276071482919406
 30
0.0
 40
1.5
  1
35°
 50
74.24267600245548
  0
ENDBLK
  8
0
  0
BLOCK
  8
0
  2
*X33
 70
     1
 10
0.0
 20
0.0
 30
0.0
  0
SOLID
  5
1276D
  8
圖層4
 62
     6
 10
762.509543714177
 20
700.0528986966272
 30
0.0
 11
763.4916562078199
 21
700.7708506795832
 31
0.0
 12
762.795480167765
 22
699.7731839410109
 32
0.0
 13
762.795480167765
 23
699.7731839410109
 33
0.0
  0
LINE
  5
1276E
  8
圖層4
 62
     6
 10
762.652511940971
 20
699.9130413188191
 30
0.0
 11
754.6918040980063
 21
691.775263375526
 31
0.0
  0
LINE
  5
1276F
  8
圖層4
 62
     6
 10
754.6918040980063
 20
691.775263375526
 30
0.0
 11
742.2418040980062
 21
691.775263375526
 31
0.0
  0
ENDBLK
  8
0
  0
BLOCK
  8
0
  2
*X34
 70
     1
 10
0.0
 20
0.0
 30
0.0
  0
SOLID
  5
12771
  8
圖層4
 62
     6
 10
33.19054354633924
 20
48.29097144882386
 30
0.0
 11
33.73911583092286
 21
49.3768206319919
 31
0.0
 12
33.57236340491178
 22
48.17175066372474
 32
0.0
 13
33.57236340491178
 23
48.17175066372474
 33
0.0
  0
LINE
  5
12772
  8
圖層4
 62
     6
 10
33.38145347562551
 20
48.2313610562743
 30
0.0
 11
31.42293926502971
 21
41.95896804795539
 31
0.0
  0
LINE
  5
12773
  8
圖層4
 62
     6
 10
31.42293926502971
 20
41.95896804795539
 30
0.0
 11
17.52293926502971
 21
41.95896804795539
 31
0.0
  0
ENDBLK
  8
0
  0
BLOCK
  8
0
  2
*X35
 70
     1
 10
0.0
 20
0.0
 30
0.0
  0
SOLID
  5
1277B
  8
圖層4
 62
     6
 10
22.32370767204267
 20
8.419543420184798
 30
0.0
 11
23.29985296746742
 21
9.145587745429566
 31
0.0
 12
22.61194611782069
 22
8.142201396006218
 32
0.0
 13
22.61194611782069
 23
8.142201396006218
 33
0.0
  0
LINE
  5
1277C
  8
圖層4
 62
     6
 10
22.46782689493168
 20
8.280872408095508
 30
0.0
 11
14.50000085765368
 21
0.0000004413724126
 31
0.0
  0
LINE
  5
1277D
  8
圖層4
 62
     6
 10
14.50000085765368
 20
0.0000004413724126
 30
0.0
 11
0.0000008576536867
 21
0.0000004413724126
 31
0.0
  0
ENDBLK
  8
0
  0
BLOCK
  8
0
  2
*X36
 70
     1
 10
0.0
 20
0.0
 30
0.0
  0
SOLID
  5
12785
  8
圖層4
 62
     6
 10
16.16661427555808
 20
6.079723797761018
 30
0.0
 11
16.83977151728539
 21
7.093064474883022
 31
0.0
 12
16.53165218390723
 22
5.916177701910107
 32
0.0
 13
16.53165218390723
 23
5.916177701910107
 33
0.0
  0
LINE
  5
12786
  8
圖層4
 62
     6
 10
16.34913322973265
 20
5.997950749835563
 30
0.0
 11
13.66190155274723
 21
-0.0000000145200263
 31
0.0
  0
LINE
  5
12787
  8
圖層4
 62
     6
 10
13.66190155274723
 20
-0.0000000145200263
 30
0.0
 11
3.961901552747236
 21
-0.0000000145200263
 31
0.0
  0
ENDBLK
  8
0
  0
ENDSEC
  0
SECTION
  2
ENTITIES
  0
LINE
  5
11673
  8
2
  6
BYBLOCK
 10
791.4358502697118
 20
698.0289971787053
 30
0.0
 11
791.4358502697124
 21
712.5289971787033
 31
0.0
  0
LINE
  5
11678
  8
2
  6
BYBLOCK
 10
791.4358502697119
 20
698.0289971787051
 30
0.0
 11
786.4358502697119
 21
697.1289971787038
 31
0.0
  0
LINE
  5
11680
  8
2
  6
BYBLOCK
 10
770.4358502697123
 20
696.5289971787046
 30
0.0
 11
785.4358502697119
 21
696.528997178704
 31
0.0
  0
LINE
  5
11691
  8
2
  6
BYBLOCK
 10
786.4358502697119
 20
697.1289971787038
 30
0.0
 11
785.4358502697119
 21
696.5289971787042
 31
0.0
  0
LINE
  5
11694
  8
2
  6
BYBLOCK
 10
791.4358502697123
 20
727.0289971787051
 30
0.0
 11
786.4358502697122
 21
727.9289971787045
 31
0.0
  0
LINE
  5
11698
  8
CENTER
 10
752.4358502697127
 20
712.5289971787046
 30
0.0
 11
830.8070651851951
 21
712.528997178706
 31
0.0
  0
LINE
  5
116AB
  8
2
  6
BYBLOCK
 10
770.4358502697127
 20
728.5289971787042
 30
0.0
 11
785.4358502697122
 21
728.5289971787043
 31
0.0
  0
LINE
  5
116B0
  8
2
  6
BYBLOCK
 10
770.4358502697122
 20
728.5289971787033
 30
0.0
 11
770.4358502697121
 21
712.5289971787049
 31
0.0
  0
LINE
  5
116BA
  8
2
  6
BYBLOCK
 10
786.4358502697122
 20
727.9289971787045
 30
0.0
 11
785.4358502697122
 21
728.5289971787041
 31
0.0
  0
LINE
  5
116BC
  8
2
  6
BYBLOCK
 10
791.4358502697121
 20
727.028997178705
 30
0.0
 11
791.4358502697124
 21
712.5289971787049
 31
0.0
  0
POLYLINE
  5
11722
  8
2
 66
     1
 10
0.0
 20
0.0
 30
0.0
 70
     1
  0
VERTEX
  5
12766
  8
2
 10
873.8815760719185
 20
728.5289971787048
 30
0.0
  0
VERTEX
  5
12767
  8
2
 10
864.6439717648843
 20
712.5289971787047
 30
0.0
  0
VERTEX
  5
12768
  8
2
 10
873.8815760719191
 20
696.5289971787048
 30
0.0
  0
VERTEX
  5
12769
  8
2
 10
892.3567846859871
 20
696.5289971787054
 30
0.0
  0
VERTEX
  5
1276A
  8
2
 10
901.5943889930202
 20
712.5289971787055
 30
0.0
  0
VERTEX
  5
1276B
  8
2
 10
892.3567846859863
 20
728.5289971787053
 30
0.0
  0
SEQEND
  5
12790
  8
2
  0
DIMENSION
  5
11724
  8
圖層4
  2
*D0
 10
907.8809931399626
 20
696.5289971787054
 30
0.0
 11
906.1309931399626
 21
712.5289971787054
 31
0.0
 70
    32
 13
892.3567846859863
 23
728.5289971787053
 33
0.0
 14
892.3567846859871
 24
696.5289971787054
 34
0.0
 50
90.00000000000124
  0
CIRCLE
  5
11726
  8
2
 10
883.1191803789523
 20
712.528997178705
 30
0.0
 40
14.95000000000039
  0
CIRCLE
  5
11727
  8
2
 10
883.1191803789523
 20
712.528997178705
 30
0.0
 40
14.95000000000039
  0
CIRCLE
  5
11729
  8
2
 10
883.1191803789523
 20
712.528997178705
 30
0.0
 40
4.000000000000227
  0
CIRCLE
  5
1172A
  8
2
 10
883.1191803789523
 20
712.528997178705
 30
0.0
 40
5.000000000000568
  0
LINE
  5
1172B
  8
CENTER
 10
883.1191803789519
 20
728.528997178705
 30
0.0
 11
883.1191803789527
 21
696.5289971787051
 31
0.0
  0
CIRCLE
  5
11895
  8
2
 10
883.1191803789523
 20
712.528997178705
 30
0.0
 40
11.02545826464302
  0
ARC
  5
118A0
  8
2
  6
BYBLOCK
 10
785.1327343692554
 20
712.528997178704
 30
0.0
 40
12.7
 50
23.18497010530205
 51
60.24393927559568
  0
ARC
  5
118BC
  8
2
  6
BYBLOCK
 10
785.1327343692554
 20
712.528997178704
 30
0.0
 40
12.7
 50
299.756060724403
 51
336.8150298947091
  0
LINE
  5
118BD
  8
2
  6
BYBLOCK
 10
796.8070651851947
 20
717.5289971787051
 30
0.0
 11
830.8070651851947
 21
717.5289971787054
 31
0.0
  0
LINE
  5
118BE
  8
2
  6
HIDDEN
 10
796.8070651851948
 20
716.528997178704
 30
0.0
 11
830.8070651851948
 21
716.5289971787042
 31
0.0
  0
LINE
  5
118BF
  8
2
  6
HIDDEN
 10
796.8070651851956
 20
708.528997178704
 30
0.0
 11
830.8070651851956
 21
708.5289971787038
 31
0.0
  0
LINE
  5
118C0
  8
2
  6
BYBLOCK
 10
796.8070651851956
 20
707.5289971787051
 30
0.0
 11
830.8070651851956
 21
707.5289971787046
 31
0.0
  0
LINE
  5
118C1
  8
CENTER
 10
864.6439717648843
 20
712.5289971787047
 30
0.0
 11
901.5943889930202
 21
712.5289971787055
 31
0.0
  0
LINE
  5
118C2
  8
2
  6
BYBLOCK
 10
786.4358502697122
 20
727.9289971787045
 30
0.0
 11
786.4358502697119
 21
697.1289971787038
 31
0.0
  0
LINE
  5
118CA
  8
圖層4
 62
     0
 10
770.4358502697121
 20
712.5289971787049
 30
0.0
 11
783.7940739971305
 21
712.5220957784483
 31
0.0
  0
ARC
  5
118CB
  8
2
 10
774.3842385258063
 20
720.0874854325449
 30
0.0
 40
12.06530014564892
 50
321.252238972444
 51
44.39909302640489
  0
ARC
  5
118CC
  8
2
 10
774.4174474184657
 20
704.9678349609388
 30
0.0
 40
12.03242975259145
 50
315.4652983229483
 51
38.80544841001509
  0
LINE
  5
118D6
  8
2
  6
BYBLOCK
 10
796.8070651851947
 20
717.5289971787051
 30
0.0
 11
796.8070651851956
 21
707.5289971787051
 31
0.0
  0
DIMENSION
  5
11927
  8
圖層4
  2
*D3
 10
770.4358502697122
 20
737.1460648246675
 30
0.0
 11
761.4358502697123
 21
738.8960648246675
 31
0.0
 70
    32
 13
752.4358502697124
 23
721.8439971787042
 33
0.0
 14
770.4358502697122
 24
721.8439971787041
 34
0.0
  0
DIMENSION
  5
11965
  8
圖層4
  2
*D4
 10
836.9432001586426
 20
716.528997178704
 30
0.0
 11
836.9432001586426
 21
721.2962228761378
 31
0.0
 70
   160
  1
%%c<>
 13
830.4060016160879
 23
708.5289971787038
 33
0.0
 14
830.4060016160881
 24
716.528997178704
 34
0.0
 50
90.0
  0
DIMENSION
  5
11972
  8
圖層4
  2
*D5
 10
840.5933400859142
 20
707.5289971787047
 30
0.0
 11
840.5933400859142
 21
721.895663845372
 31
0.0
 70
   160
  1
%%c<>
 13
830.4060016160881
 23
717.5289971787054
 33
0.0
 14
830.4060016160879
 24
707.5289971787047
 34
0.0
 50
90.0
  0
LINE
  5
119C6
  8
0
  6
BYBLOCK
 62
     6
 10
795.6398232078916
 20
709.3169691351397
 30
0.0
 11
822.3003059974079
 21
690.6490981136124
 31
0.0
  0
LINE
  5
119C7
  8
0
  6
BYBLOCK
 62
     6
 10
799.1525717598729
 20
712.5289971787065
 30
0.0
 11
829.1990116734255
 21
712.5289971787107
 31
0.0
  0
ARC
  5
119C8
  8
0
  6
BYBLOCK
 62
     6
 10
791.0525717598725
 20
712.5289971787056
 30
0.0
 40
37.54643991355302
 50
326.8312751409205
 51
358.1687248590907
  0
SOLID
  5
119C9
  8
0
  6
BYBLOCK
 62
     6
 10
822.6469530026084
 20
691.8750173615257
 30
0.0
 11
822.3156676756684
 21
692.0991825509603
 31
0.0
 12
821.8088147708345
 22
690.993243975423
 32
0.0
 13
821.8088147708345
 23
690.993243975423
 33
0.0
  0
SOLID
  5
119CA
  8
0
  6
BYBLOCK
 62
     6
 10
828.3798609595942
 20
711.3323464507923
 30
0.0
 11
828.7798098829101
 21
711.3259543667345
 31
0.0
 12
828.5990116734255
 22
712.5289971787106
 32
0.0
 13
828.5990116734255
 23
712.5289971787106
 33
0.0
  0
POINT
  5
119CC
  8
DEFPOINTS
  6
BYBLOCK
 62
     0
 10
825.5283176445105
 20
697.6576120421452
 30
0.0
  0
POINT
  5
119D0
  8
DEFPOINTS
  6
BYBLOCK
 62
     0
 10
795.1483319813182
 20
709.6611149969502
 30
0.0
  0
LINE
  5
11AE2
  8
2
  6
BYBLOCK
 10
830.8070651851947
 20
717.5289971787084
 30
0.0
 11
830.8070651851956
 21
707.5289971787084
 31
0.0
  0
DIMENSION
  5
11AFC
  8
圖層4
  2
*D6
 10
830.8070651851947
 20
737.0986987620627
 30
0.0
 11
800.6214577274536
 21
738.8486987620627
 31
0.0
 70
    32
  1
60
 13
770.4358502697127
 23
728.5289971787042
 33
0.0
 14
830.8070651851947
 24
717.5289971787084
 34
0.0
  0
DIMENSION
  5
11B14
  8
圖層4
  2
*D7
 10
830.8070651851956
 20
688.2317304981607
 30
0.0
 11
813.8070651851956
 21
689.9817304981607
 31
0.0
 70
    32
 13
796.8070651851956
 23
707.5289971787051
 33
0.0
 14
830.8070651851956
 24
707.5289971787046
 34
0.0
  0
LINE
  5
123C6
  8
2
  6
HIDDEN
 10
752.4358502697124
 20
718.5289971787079
 30
0.0
 11
770.4358502697121
 21
718.5289971787064
 31
0.0
  0
LINE
  5
123C7
  8
2
  6
HIDDEN
 10
752.4358502697123
 20
706.5289971787014
 30
0.0
 11
770.4358502697121
 21
706.5289971787024
 31
0.0
  0
LINE
  5
123C9
  8
2
  6
BYBLOCK
 10
752.4358502697123
 20
723.2939971787041
 30
0.0
 11
768.4358502697123
 21
723.2939971787057
 31
0.0
  0
LINE
  5
123CA
  8
2
  6
BYBLOCK
 10
753.0358502697127
 20
724.4289971787055
 30
0.0
 11
768.4358502697128
 21
724.428997178706
 31
0.0
  0
LINE
  5
123CB
  8
2
  6
BYBLOCK
 10
753.0358502697143
 20
700.628997178702
 30
0.0
 11
768.4358502697144
 21
700.6289971787033
 31
0.0
  0
LINE
  5
123CC
  8
2
  6
BYBLOCK
 10
752.4358502697137
 20
701.7639971787033
 30
0.0
 11
768.4358502697137
 21
701.7639971787037
 31
0.0
  0
DIMENSION
  5
123D6
  8
圖層4
  2
*D28
 10
747.7752473099833
 20
706.5289971787014
 30
0.0
 11
746.0252473099833
 21
712.5289971787047
 31
0.0
 70
    32
  1
%%c<>
 13
752.4358502697124
 23
718.5289971787079
 33
0.0
 14
752.4358502697131
 24
706.5289971787014
 34
0.0
 50
90.0
  0
LINE
  5
123D7
  8
2
  6
BYBLOCK
 10
752.4358502697124
 20
722.3789971787049
 30
0.0
 11
752.4358502697124
 21
712.5289971787055
 31
0.0
  0
LINE
  5
123D8
  8
2
  6
BYBLOCK
 10
752.4358502697122
 20
702.6789971787043
 30
0.0
 11
752.4358502697124
 21
712.5289971787038
 31
0.0
  0
LINE
  5
123D9
  8
2
  6
BYBLOCK
 10
752.435850269714
 20
703.0789971787038
 30
0.0
 11
752.4358502697129
 21
701.2289971787035
 31
0.0
  0
LINE
  5
123DA
  8
2
  6
BYBLOCK
 10
752.4358502697138
 20
701.228997178703
 30
0.0
 11
753.0358502697143
 21
700.6289971787024
 31
0.0
  0
LINE
  5
123DB
  8
2
  6
BYBLOCK
 10
752.4358502697129
 20
701.2289971787035
 30
0.0
 11
753.0358502697143
 21
700.6289971787029
 31
0.0
  0
LINE
  5
123DC
  8
2
  6
BYBLOCK
 10
752.4358502697114
 20
723.828997178704
 30
0.0
 11
753.0358502697127
 21
724.4289971787045
 31
0.0
  0
LINE
  5
123DD
  8
2
  6
BYBLOCK
 10
752.4358502697123
 20
723.8289971787044
 30
0.0
 11
753.0358502697127
 21
724.428997178705
 31
0.0
  0
LINE
  5
123DE
  8
2
  6
BYBLOCK
 10
752.4358502697128
 20
721.9789971787036
 30
0.0
 11
752.4358502697114
 21
723.828997178704
 31
0.0
  0
LINE
  5
1240D
  8
2
  6
BYBLOCK
 10
770.4358502697119
 20
696.5289971787055
 30
0.0
 11
770.4358502697123
 21
712.5289971787049
 31
0.0
  0
ARC
  5
1240E
  8
2
  6
BYBLOCK
 10
768.4358502697138
 20
699.7639971787052
 30
0.0
 40
2.0
 50
0.0000000000024739
 51
90.00000000000318
  0
LINE
  5
1240F
  8
2
  6
BYBLOCK
 10
768.4358502697141
 20
701.7639971787052
 30
0.0
 11
768.4358502697144
 21
700.6289971787033
 31
0.0
  0
POINT
  5
12410
  8
DEFPOINTS
  6
BYBLOCK
 62
     0
 10
770.5525717598729
 20
712.5289971787029
 30
0.0
  0
LINE
  5
12411
  8
2
  6
BYBLOCK
 10
768.4358502697128
 20
723.2939971787042
 30
0.0
 11
768.4358502697128
 21
724.428997178706
 31
0.0
  0
ARC
  5
12412
  8
2
  6
BYBLOCK
 10
768.4358502697121
 20
725.2939971787042
 30
0.0
 40
2.0
 50
270.0000000000041
 51
0.0000000000047637
  0
LINE
  5
125B2
  8
文字
 62
     3
 39
1.706666495829334
 10
892.1267072581205
 20
655.5258419353502
 30
0.0
 11
894.4016099491056
 21
656.094567608096
 31
0.0
  0
LINE
  5
125B3
  8
-
 62
     8
 10
899.7739284597691
 20
657.1114177718853
 30
0.0
 11
899.7739284597691
 21
648.5780852927388
 31
0.0
  0
LINE
  5
125B4
  8
-
 62
     9
 10
895.9339288441535
 20
657.1114177718853
 30
0.0
 11
895.9339288441535
 21
648.5780852927388
 31
0.0
  0
LINE
  5
125B5
  8
-
 62
     9
 10
905.7899278575677
 20
657.1114177718853
 30
0.0
 11
905.7899278575677
 21
640.0447528135918
 31
0.0
  0
LINE
  5
125B6
  8
-
 62
     8
 10
889.9179294463547
 20
652.8447515323119
 30
0.0
 11
889.9179294463547
 21
648.5780852927388
 31
0.0
  0
LINE
  5
125B7
  8
-
 62
     8
 10
872.4683413771996
 20
640.0447528135918
 30
0.0
 11
872.4683413771996
 21
654.9780846520986
 31
0.0
  0
LINE
  5
125B8
  8
-
 62
     9
 10
886.0779298307386
 20
657.1114177718853
 30
0.0
 11
886.0779298307386
 21
648.5780852927388
 31
0.0
  0
LINE
  5
125B9
  8
-
 62
     8
 10
880.0619304329409
 20
657.1114177718853
 30
0.0
 11
880.0619304329409
 21
648.5780852927388
 31
0.0
  0
LINE
  5
125BA
  8
-
 62
     9
 10
876.2219308173243
 20
657.1114177718853
 30
0.0
 11
876.2219308173243
 21
640.0447528135918
 31
0.0
  0
LINE
  5
125BB
  8
-
 10
857.0170628924257
 20
640.0447528135918
 30
0.0
 11
857.0170628924257
 21
657.1114177718853
 31
0.0
  0
LINE
  5
125BC
  8
-
 62
     9
 10
864.2104446089244
 20
640.0447528135918
 30
0.0
 11
864.2104446089244
 21
657.1114177718853
 31
0.0
  0
LINE
  5
125BD
  8
-
 10
849.6411041514798
 20
640.0447528135918
 30
0.0
 11
849.6411041514802
 21
657.1114177718853
 31
0.0
  0
LINE
  5
125BE
  8
-
 62
     9
 10
921.1808055003172
 20
640.0447528135918
 30
0.0
 11
921.1808055003172
 21
776.311405839965
 31
0.0
  0
LINE
  5
125BF
  8
-
 10
825.5303114395911
 20
640.0447528135918
 30
0.0
 11
825.5303114395906
 21
657.1114177718853
 31
0.0
  0
LINE
  5
125C0
  8
-
 62
     9
 10
819.7763712064576
 20
657.1114177718853
 30
0.0
 11
819.7763712064576
 21
640.0447528135918
 31
0.0
  0
LINE
  5
125C1
  8
-
 62
     9
 10
819.7763712064576
 20
640.0447528135918
 30
0.0
 11
819.7763712064576
 21
657.1114177718853
 31
0.0
  0
TEXT
  5
125C2
  8
文字
  6
CONTINUOUS
 62
     3
 10
732.2129772889587
 20
651.0101972327296
 30
0.0
 40
1.9999997998
  1
註:
  0
LINE
  5
125C3
  8
-
 62
     9
 10
731.1808245193173
 20
640.0447528135918
 30
0.0
 11
731.1808245193173
 21
776.311405839965
 31
0.0
  0
LINE
  5
125C4
  8
-
 62
     9
 10
864.2104446089244
 20
648.5780852927388
 30
0.0
 11
841.8208134442533
 21
648.5780852927388
 31
0.0
  0
TEXT
  5
125C5
  8
文字
  6
CONTINUOUS
 62
     3
 10
828.598013545279
 20
641.0229603387513
 30
0.0
 40
2.133333119786667
  1
更  改  内  容
  0
LINE
  5
125C6
  8
-
 62
     9
 10
864.2104446089244
 20
644.3114190531652
 30
0.0
 11
819.7763712064576
 21
644.3114190531652
 31
0.0
  0
LINE
  5
125C7
  8
-
 62
     9
 10
864.2104446089244
 20
648.5780852927388
 30
0.0
 11
819.7763712064576
 21
648.5780852927388
 31
0.0
  0
LINE
  5
125C8
  8
-
 62
     9
 10
731.1808245193173
 20
640.0447528135918
 30
0.0
 11
921.1808055003172
 21
640.0447528135918
 31
0.0
  0
TEXT
  5
125C9
  8
文字
  6
CONTINUOUS
 62
     3
 10
750.0791824077555
 20
645.7923142541314
 30
0.0
 40
1.9999997998
  1
黒 染
  0
TEXT
  5
125CA
  8
文字
  6
CONTINUOUS
 62
     3
 10
738.7990074388372
 20
642.543479719338
 30
0.0
 40
1.9999997998
  1
ボイン卜・フイツ卜・ノズル
  0
TEXT
  5
125CB
  8
文字
  6
CONTINUOUS
 62
     3
 10
733.5337403490483
 20
645.8807986455656
 30
0.0
 40
1.9999997998
  1
表 面 処 理 :
  0
LINE
  5
125CC
  8
0
 62
     3
 10
822.7092569828335
 20
651.9288818276514
 30
0.0
 11
821.5831801507957
 21
649.6767281635765
 31
0.0
  0
TEXT
  5
125CD
  8
0
  6
CONTINUOUS
 62
     3
 10
822.4734665274518
 20
649.8338967058278
 30
0.0
 40
1.493333183850666
  1
2
 41
0.5
  0
LINE
  5
125CE
  8
0
 62
     3
 10
822.7092569828335
 20
651.9288818276514
 30
0.0
 11
823.8353338148708
 21
649.6767281635765
 31
0.0
  0
LINE
  5
125CF
  8
0
 62
     3
 10
822.766672831577
 20
647.6569740933776
 30
0.0
 11
821.6405959995398
 21
645.4048204293026
 31
0.0
  0
LINE
  5
125D0
  8
0
 62
     3
 10
822.766672831577
 20
647.6569740933776
 30
0.0
 11
823.8927496636148
 21
645.4048204293026
 31
0.0
  0
TEXT
  5
125D1
  8
0
  6
CONTINUOUS
 62
     3
 10
822.655379169291
 20
645.6532826380412
 30
0.0
 40
1.493333183850666
  1
1
 41
0.5
  0
LINE
  5
125D2
  8
0
 62
     3
 10
821.6405959995398
 20
645.4048204293026
 30
0.0
 11
823.8927496636148
 21
645.4048204293026
 31
0.0
  0
LINE
  5
125D3
  8
0
 62
     3
 10
821.5831801507957
 20
649.6767281635765
 30
0.0
 11
823.8353338148708
 21
649.6767281635765
 31
0.0
  0
LINE
  5
125D4
  8
0
 62
     3
 10
821.5397689607782
 20
640.9823736746546
 30
0.0
 11
823.7919226248533
 21
640.9823736746546
 31
0.0
  0
LINE
  5
125D5
  8
0
 62
     3
 10
822.6658457928165
 20
643.2345273387295
 30
0.0
 11
821.5397689607782
 21
640.9823736746546
 31
0.0
  0
LINE
  5
125D6
  8
0
 62
     3
 10
822.6658457928165
 20
643.2345273387295
 30
0.0
 11
823.7919226248533
 21
640.9823736746546
 31
0.0
  0
TEXT
  5
125D7
  8
文字
  6
CONTINUOUS
 62
     3
 10
909.6015158330696
 20
649.5490699994864
 30
0.0
 40
1.333333199866666
  1
NNM24-60
  0
TEXT
  5
125D8
  8
文字
  6
CONTINUOUS
 62
     3
 10
910.6803668159054
 20
640.7091936971884
 30
0.0
 40
1.59999983984
  1
NP80017
  0
LINE
  5
125D9
  8
-
 62
     9
 10
921.1808055003172
 20
648.5780852927388
 30
0.0
 11
876.2219308173243
 21
648.5780852927388
 31
0.0
  0
TEXT
  5
125DA
  8
0
  6
CONTINUOUS
 62
     3
 10
876.7497744126852
 20
649.9331734921245
 30
0.0
 40
1.919999807808
  1
製 図
 41
0.5
  0
TEXT
  5
125DB
  8
0
  6
CONTINUOUS
 62
     3
 10
877.4585403854402
 20
642.3417238519423
 30
0.0
 40
2.559999743744
  1
日機株式会社
 41
1.5
  0
TEXT
  5
125DC
  8
文字
  6
CONTINUOUS
 62
     3
 10
858.1387793564103
 20
641.0640652561186
 30
0.0
 40
1.59999983984
  1
日 付
  0
TEXT
  5
125DD
  8
文字
  6
CONTINUOUS
 62
     3
 10
850.9523698537394
 20
641.0640652561186
 30
0.0
 40
1.59999983984
  1
担  当
  0
TEXT
  5
125DE
  8
文字
  6
CONTINUOUS
 62
     3
 10
868.6541171986638
 20
649.1056457669592
 30
0.0
 40
1.013759898522624
  1
4-16
  0
TEXT
  5
125DF
  8
文字
  6
CONTINUOUS
 62
     3
 10
866.563449148646
 20
644.854645240964
 30
0.0
 40
1.013759898522624
  1
63-250
  0
TEXT
  5
125E0
  8
文字
  6
CONTINUOUS
 62
     3
 10
867.8164281324448
 20
646.9459332678019
 30
0.0
 40
1.013759898522624
  1
16-63
  0
TEXT
  5
125E1
  8
文字
  6
CONTINUOUS
 62
     3
 10
866.1821508739047
 20
642.7129274874538
 30
0.0
 40
0.9011199097978878
  1
250-1000
  0
TEXT
  5
125E2
  8
文字
  6
CONTINUOUS
 62
     3
 10
865.7638989789874
 20
640.5985086470617
 30
0.0
 40
0.9011199097978878
  1
1000-1500
  0
LINE
  5
125E3
  8
-
 62
     8
 10
876.2219308173243
 20
642.1780859333782
 30
0.0
 11
864.2104446089244
 21
642.1780859333782
 31
0.0
  0
LINE
  5
125E4
  8
-
 62
     8
 10
876.2219308173243
 20
644.3114190531652
 30
0.0
 11
864.2104446089244
 21
644.3114190531652
 31
0.0
  0
LINE
  5
125E5
  8
-
 62
     8
 10
876.2219308173243
 20
646.4447521729521
 30
0.0
 11
864.2104446089244
 21
646.4447521729521
 31
0.0
  0
LINE
  5
125E6
  8
-
 62
     8
 10
876.2219308173243
 20
648.5780852927388
 30
0.0
 11
864.2104446089244
 21
648.5780852927388
 31
0.0
  0
LINE
  5
125E7
  8
-
 62
     8
 10
876.2219308173243
 20
650.7114184125252
 30
0.0
 11
864.2104446089244
 21
650.7114184125252
 31
0.0
  0
TEXT
  5
125E8
  8
文字
  6
CONTINUOUS
 62
     3
 10
872.7061526095864
 20
649.1862000140053
 30
0.0
 40
0.9011199097978878
  1
±0.07
  0
TEXT
  5
125E9
  8
文字
  6
CONTINUOUS
 62
     3
 10
872.8714397856025
 20
642.7500111182829
 30
0.0
 40
0.9011199097978878
  1
±0.3
  0
TEXT
  5
125EA
  8
文字
  6
CONTINUOUS
 62
     3
 10
872.8714397856025
 20
640.5985086470617
 30
0.0
 40
0.9011199097978878
  1
±0.5
  0
TEXT
  5
125EB
  8
文字
  6
CONTINUOUS
 62
     3
 10
872.8141784085465
 20
644.9110509361453
 30
0.0
 40
0.9011199097978878
  1
±0.2
  0
TEXT
  5
125EC
  8
文字
  6
CONTINUOUS
 62
     3
 10
872.7399778744772
 20
646.9174494735878
 30
0.0
 40
0.9011199097978878
  1
±0.1
  0
TEXT
  5
125ED
  8
文字
  6
CONTINUOUS
 62
     3
 10
869.7123467549605
 20
651.1372459096464
 30
0.0
 40
1.013759898522624
  1
1-4
  0
TEXT
  5
125EE
  8
文字
  6
CONTINUOUS
 62
     3
 10
872.5736617727808
 20
651.1823270481347
 30
0.0
 40
0.9011199097978878
  1
±0.05
  0
TEXT
  5
125EF
  8
0
  6
CONTINUOUS
 62
     3
 10
896.4631839967716
 20
649.7429390989835
 30
0.0
 40
1.919999807808
  1
承 認
 41
0.5
  0
TEXT
  5
125F0
  8
0
  6
CONTINUOUS
 62
     3
 10
886.5047508512865
 20
649.9708451258385
 30
0.0
 40
1.919999807808
  1
検 図
 41
0.5
  0
TEXT
  5
125F1
  8
0
  6
CONTINUOUS
 62
     3
 10
881.2402663858712
 20
649.5184495885068
 30
0.0
 40
2.133333119786667
  1
李国慶
 41
0.5
  0
TEXT
  5
125F2
  8
0
  6
CONTINUOUS
 62
     3
 10
890.9727138199706
 20
649.5184495885067
 30
0.0
 40
2.133333119786667
  1
小 柳
 41
0.5
  0
TEXT
  5
125F3
  8
0
  6
CONTINUOUS
 62
     3
 10
906.917036880839
 20
645.9338898581644
 30
0.0
 40
1.706666495829334
  1
図  面  番  号
 41
0.5
  0
LINE
  5
125F4
  8
-
 62
     9
 10
921.1808055003172
 20
636.3114198539649
 30
0.0
 11
921.1808055003172
 21
637.3780864138583
 31
0.0
  0
LINE
  5
125F5
  8
-
 62
     9
 10
921.1808055003172
 20
636.3114198539649
 30
0.0
 11
920.1141389404237
 21
636.3114198539649
 31
0.0
  0
LINE
  5
125F6
  8
-
 62
     9
 10
921.1808055003172
 20
636.3114198539649
 30
0.0
 11
920.1141389404237
 21
636.3114198539649
 31
0.0
  0
LINE
  5
125F7
  8
-
 62
     9
 10
864.2104446089244
 20
652.8447515323119
 30
0.0
 11
841.8208134442533
 21
652.8447515323119
 31
0.0
  0
LINE
  5
125F8
  8
-
 62
     9
 10
864.2104446089244
 20
652.8447515323119
 30
0.0
 11
819.7763712064576
 21
652.8447515323119
 31
0.0
  0
LINE
  5
125F9
  8
-
 62
     9
 10
921.1808055003172
 20
657.1114177718853
 30
0.0
 11
819.7763712064576
 21
657.1114177718853
 31
0.0
  0
LINE
  5
125FA
  8
0
 62
     3
 10
821.4817387096078
 20
653.9478878781124
 30
0.0
 11
823.7338923736825
 21
653.9478878781124
 31
0.0
  0
LINE
  5
125FB
  8
0
 62
     3
 10
822.6078155416448
 20
656.2000415421877
 30
0.0
 11
821.4817387096078
 21
653.9478878781124
 31
0.0
  0
LINE
  5
125FC
  8
0
 62
     3
 10
822.6078155416448
 20
656.2000415421877
 30
0.0
 11
823.7338923736825
 21
653.9478878781124
 31
0.0
  0
TEXT
  5
125FD
  8
0
  6
CONTINUOUS
 62
     3
 10
822.2890286156143
 20
654.1557378661854
 30
0.0
 40
1.493333183850666
  1
3
 41
0.5
  0
TEXT
  5
125FE
  8
0
  6
CONTINUOUS
 62
     3
 10
876.8503923194947
 20
653.8452497846548
 30
0.0
 40
1.919999807808
  1
日 付
 41
0.5
  0
LINE
  5
125FF
  8
-
 62
     9
 10
905.7899278575677
 20
652.8447515323119
 30
0.0
 11
864.2104446089244
 21
652.8447515323119
 31
0.0
  0
TEXT
  5
12600
  8
文字
  6
CONTINUOUS
 62
     3
 10
864.5952701699922
 20
653.21528938113
 30
0.0
 40
1.12639988724736
  1
寸     法
  0
LINE
  5
12601
  8
-
 62
     9
 10
876.2219308173243
 20
654.9780846520986
 30
0.0
 11
864.2104446089244
 21
654.9780846520986
 31
0.0
  0
TEXT
  5
12602
  8
文字
  6
CONTINUOUS
 62
     3
 10
863.4123063091457
 20
655.4803520065642
 30
0.0
 40
1.066666559893333
  1
一   般   公   差
  0
TEXT
  5
12603
  8
文字
  6
CONTINUOUS
 62
     3
 10
873.3527337033025
 20
653.471656762795
 30
0.0
 40
0.6758399323484161
  1
容許公差
  0
TEXT
  5
12604
  8
0
  6
CONTINUOUS
 62
     3
 10
896.4956451911031
 20
654.1525391045725
 30
0.0
 40
1.919999807808
  1
尺 度
 41
0.5
  0
LINE
  5
12605
  8
文字
 62
     3
 10
887.0085083772136
 20
654.9571162626038
 30
0.0
 11
889.936376081288
 21
654.9571162626038
 31
0.0
  0
CIRCLE
  5
12606
  8
文字
 62
     3
 10
888.4299903852703
 20
654.9571162626038
 30
0.0
 40
1.137451345492422
  0
TEXT
  5
12607
  8
0
  6
CONTINUOUS
 62
     3
 10
880.9301161042446
 20
654.1313230186257
 30
0.0
 40
1.59999983984
  1
030221
 41
0.5
  0
LINE
  5
12608
  8
文字
 62
     3
 10
892.1267072581205
 20
654.3883905898575
 30
0.0
 11
894.4016099491056
 21
653.8196649171114
 31
0.0
  0
LINE
  5
12609
  8
文字
 62
     3
 10
891.7993676235675
 20
654.9571162626038
 30
0.0
 11
894.6058400500398
 21
654.9571162626038
 31
0.0
  0
LINE
  5
1260A
  8
文字
 62
     3
 10
892.1267072581205
 20
654.3883905898575
 30
0.0
 11
892.1267072581205
 21
655.5258419353502
 31
0.0
  0
LINE
  5
1260B
  8
文字
 62
     3
 10
894.4016099491056
 20
653.8196649171114
 30
0.0
 11
894.4016099491056
 21
656.094567608096
 31
0.0
  0
CIRCLE
  5
1260C
  8
文字
 62
     3
 10
888.4299903852703
 20
654.9571162626038
 30
0.0
 40
0.5687256727462112
  0
LINE
  5
1260D
  8
文字
 62
     3
 10
888.4299903852703
 20
653.5391220228531
 30
0.0
 11
888.4299903852703
 21
656.2850284286047
 31
0.0
  0
TEXT
  5
1260E
  8
0
  6
CONTINUOUS
 62
     3
 10
901.3231807088432
 20
654.0745760286202
 30
0.0
 40
1.919999807808
  1
1.5 : 1
 41
0.5
  0
TEXT
  5
1260F
  8
0
  6
CONTINUOUS
 62
     3
 10
906.9537465547791
 20
654.8182696081185
 30
0.0
 40
1.706666495829334
  1
品     名
 41
0.5
  0
LINE
  5
12610
  8
-
 62
     9
 10
731.1808245193173
 20
776.311405839965
 30
0.0
 11
921.1808055003172
 21
776.311405839965
 31
0.0
  0
LINE
  5
12611
  8
-
 62
     9
 10
723.180825320117
 20
774.9780726400984
 30
0.0
 11
723.180825320117
 21
776.311405839965
 31
0.0
  0
LINE
  5
12612
  8
-
 62
     9
 10
724.5141585199839
 20
776.311405839965
 30
0.0
 11
723.180825320117
 21
776.311405839965
 31
0.0
  0
LINE
  5
12613
  8
-
 62
     9
 10
723.180825320117
 20
776.311405839965
 30
0.0
 11
723.180825320117
 21
774.9780726400984
 31
0.0
  0
TEXT
  5
126A7
  8
圖層4
  6
CONTINUOUS
 62
     3
 10
742.2418040980062
 20
692.775263375526
 30
0.0
 40
1.5
  1
M24x2.0P
  0
INSERT
  5
126A8
  8
圖層4
 62
     6
  2
*X33
 10
0.0
 20
0.0
 30
0.0
  0
TEXT
  5
126F1
  8
0
  6
CONTINUOUS
 62
     3
 10
826.2702955394468
 20
722.6312191522137
 30
0.0
 40
1.5
  1
35°
 50
104.7380042192407
  0
TEXT
  5
126F2
  8
0
  6
CONTINUOUS
 62
     3
 10
825.0559410229312
 20
699.3670160604725
 30
0.0
 40
1.5
  1
35°
 50
74.24267600245548
  0
LINE
  5
1270A
  8
0
  6
BYBLOCK
 62
     6
 10
799.1525717598729
 20
712.5289971787067
 30
0.0
 11
829.1982013634737
 21
712.5289971787064
 31
0.0
  0
LINE
  5
1270B
  8
0
  6
BYBLOCK
 62
     6
 10
795.6398232078913
 20
715.7410252222729
 30
0.0
 11
822.2996422303531
 21
734.4084314691072
 31
0.0
  0
ARC
  5
1270C
  8
0
  6
BYBLOCK
 62
     6
 10
791.0525717598722
 20
712.5289971787067
 30
0.0
 40
37.54562960360143
 50
1.831314666870086
 51
33.16868533312925
  0
SOLID
  5
1270D
  8
0
  6
BYBLOCK
 62
     6
 10
828.7789991579937
 20
713.7320400530449
 30
0.0
 11
828.3790502368828
 21
713.7256478310331
 31
0.0
 12
828.5982013634737
 22
712.5289971787064
 32
0.0
 13
828.5982013634737
 23
712.5289971787064
 33
0.0
  0
SOLID
  5
1270E
  8
0
  6
BYBLOCK
 62
     6
 10
822.3150035271432
 20
732.958346856931
 30
0.0
 11
822.6462889314042
 21
733.1825119320957
 31
0.0
 12
821.8081510037797
 22
734.0642856072966
 32
0.0
 13
821.8081510037797
 23
734.0642856072966
 33
0.0
  0
POINT
  5
12710
  8
DEFPOINTS
  6
BYBLOCK
 62
     0
 10
827.8225320004424
 20
720.1213832488246
 30
0.0
  0
POINT
  5
12711
  8
DEFPOINTS
  6
BYBLOCK
 62
     0
 10
791.0525717598728
 20
712.5289971787072
 30
0.0
  0
POINT
  5
12712
  8
DEFPOINTS
  6
BYBLOCK
 62
     0
 10
770.5525717598729
 20
712.5289971787067
 30
0.0
  0
POINT
  5
12713
  8
DEFPOINTS
  6
BYBLOCK
 62
     0
 10
798.552571759873
 20
712.5289971787067
 30
0.0
  0
POINT
  5
12714
  8
DEFPOINTS
  6
BYBLOCK
 62
     0
 10
795.1483319813178
 20
715.3968793604623
 30
0.0
  0
ENDSEC
  0
EOF
